(Alternative, Thrash, Heavy Metal, Hard Rock) [CD] VA - Kerrang! - The Album - 1994 ( AHLCD 21 1:1, Nimbus), FLAC (image+.cue), lossless

 
 Статистика раздачи 
Размер: 1011.12 МБ   |  Зарегистрирован: 10 авг 2015, 12:58   |   .torrent скачан: 0 раз
Сидеров: 1  [ 0 байт/сек ]     Личеров: 0  [ 0 байт/сек ]  
  

(Alternative, Thrash, Heavy Metal, Hard Rock) [CD] VA - Kerrang! - The Album - 1994 ( AHLCD 21 1:1, Nimbus), FLAC (image+.cue), lossless

Сообщение bagouser » 10 авг 2015, 12:58

Kerrang! - The Album

Жанр: Alternative, Thrash, Heavy Metal, Hard Rock
Носитель: CD
Страна-производитель диска (релиза): United Kingdom
Год издания: 1994
Издатель (лейбл): The Hit Label Ltd.
Номер по каталогу: AHLCD21
Матрица: AHLCD 21 1:1 MASTERED BY NIMBUS
Страна исполнителя (группы): International
Аудиокодек: FLAC (*.flac)
Тип рипа: image+.cue
Битрейт аудио: lossless
Продолжительность: 02:21:52
Источник (релизер): Original CD (s296)
Наличие сканов в содержимом раздачи: да
Треклист:
1-1 –Soundgarden Jesus Christ Pose 5:51
1-2 –Prong Another Worldly Device 3:25
1-3 –Biohazard Punishment 4:46
1-4 –Therapy? Auto Surgery 2:21
1-5 –Sepultura Territory 4:48
1-6 –Megadeth Sweating Bullets 5:05
1-7 –Pantera Shedding Skin 5:39
1-8 –Wildhearts, The Caffeine Bomb 2:40
1-9 –Terrorvision My House 3:08
1-10 –Red Hot Chili Peppers Give It Away 4:45
1-11 –Clawfinger Warfair 3:50
1-12 –Duff McKagan Believe In Me 3:22
1-13 –Little Angels Ten Miles High 3:18
1-14 –Almighty, The Over The Edge 4:37
1-15 –Alice In Chains Down In The Hole 5:39
2-1 –Motörhead Ace Of Spades (Live) 2:51
2-2 –Black Sabbath Paranoid 2:48
2-3 –Deep Purple Smoke On The Water 5:04
2-4 –Judas Priest Victim Of Changes (Live) 7:13
2-5 –Rainbow Stargazer 8:21
2-6 –Meat Loaf Bat Out Of Hell 9:45
2-7 –Ugly Kid Joe Cats In The Cradle 4:03
2-8 –Megadeth In My Darkest Hour 6:18
2-9 –UFO (5) Doctor Doctor (Live) 3:51
2-10 –Rush Spirit Of Radio 4:58
2-11 –Faith No More Epic 3:44
2-12 –Slayer Angel Of Death 4:51
2-13 –Skid Row Youth Gone Wild 3:20
2-14 –Steppenwolf Born To Be Wild 3:26
2-15 –Lynyrd Skynyrd Free Bird 9:06
Код: Выделить всё
Exact Audio Copy V1.0 beta 4 from 7. December 2014

EAC extraction logfile from 14. January 2015, 0:46

Kerrang! / The Album - Disk One - Kontemporary Kaos

Used drive : Optiarc DVD RW AD-7203A Adapter: 1 ID: 0

Read mode : Secure
Utilize accurate stream : Yes
Defeat audio cache : Yes
Make use of C2 pointers : No

Read offset correction : 48
Overread into Lead-In and Lead-Out : No
Fill up missing offset samples with silence : Yes
Delete leading and trailing silent blocks : No
Null samples used in CRC calculations : Yes
Used interface : Native Win32 interface for Win NT & 2000

Used output format : User Defined Encoder
Selected bitrate : 128 kBit/s
Quality : High
Add ID3 tag : No
Command line compressor : C:\Program Files\Exact Audio Copy\Flac\flac.exe
Additional command line options : -V -8 -T "Date=%year%" -T "Genre=%genre%" %source%

TOC of the extracted CD

Track | Start | Length | Start sector | End sector
---------------------------------------------------------
1 | 0:00.32 | 5:51.00 | 32 | 26356
2 | 5:51.32 | 3:25.00 | 26357 | 41731
3 | 9:16.32 | 4:46.10 | 41732 | 63191
4 | 14:02.42 | 2:20.65 | 63192 | 73756
5 | 16:23.32 | 4:48.25 | 73757 | 95381
6 | 21:11.57 | 5:04.50 | 95382 | 118231
7 | 26:16.32 | 5:38.50 | 118232 | 143631
8 | 31:55.07 | 2:40.25 | 143632 | 155656
9 | 34:35.32 | 3:08.00 | 155657 | 169756
10 | 37:43.32 | 4:44.50 | 169757 | 191106
11 | 42:28.07 | 3:49.50 | 191107 | 208331
12 | 46:17.57 | 3:22.00 | 208332 | 223481
13 | 49:39.57 | 3:17.50 | 223482 | 238306
14 | 52:57.32 | 4:36.50 | 238307 | 259056
15 | 57:34.07 | 5:39.00 | 259057 | 284481

Range status and errors

Selected range

Filename G:\Music\My Rips\s296\Various Artists - Kerrang! - The Album (1994, 2 CD, AHLCD21) - by s296\CD1 - Kerrang! - The Album - Disk One - Kontemporary Kaos\Kerrang! - The Album - Disk One - Kontemporary Kaos.wav

Peak level 100.0 %
Extraction speed 3.5 X
Range quality 99.9 %
Test CRC 95E09B2D
Copy CRC 95E09B2D
Copy OK

No errors occurred

AccurateRip summary

Track 1 accurately ripped (confidence 12) [016F7F48] (AR v2)
Track 2 accurately ripped (confidence 12) [B1609B21] (AR v2)
Track 3 accurately ripped (confidence 12) [6AF3604A] (AR v2)
Track 4 accurately ripped (confidence 12) [E620C2D2] (AR v2)
Track 5 accurately ripped (confidence 12) [F94622F5] (AR v2)
Track 6 accurately ripped (confidence 11) [5DC86591] (AR v2)
Track 7 accurately ripped (confidence 12) [99CBD856] (AR v2)
Track 8 accurately ripped (confidence 10) [C504F74D] (AR v2)
Track 9 accurately ripped (confidence 11) [21DDF619] (AR v2)
Track 10 accurately ripped (confidence 12) [9461EF4E] (AR v2)
Track 11 accurately ripped (confidence 12) [0B76DDA0] (AR v2)
Track 12 accurately ripped (confidence 12) [37379020] (AR v2)
Track 13 accurately ripped (confidence 12) [C60999E1] (AR v2)
Track 14 accurately ripped (confidence 12) [EEA5CA01] (AR v2)
Track 15 accurately ripped (confidence 12) [2570C6FC] (AR v2)

All tracks accurately ripped

End of status report

---- CUETools DB Plugin V2.1.4

[CTDB TOCID: 6jCjm_e6qpAw6YH1ELFlz.jaCp8-] found
Submit result: already submitted
Track | CTDB Status
1 | (1/1) Accurately ripped
2 | (1/1) Accurately ripped
3 | (1/1) Accurately ripped
4 | (1/1) Accurately ripped
5 | (1/1) Accurately ripped
6 | (1/1) Accurately ripped
7 | (1/1) Accurately ripped
8 | (1/1) Accurately ripped
9 | (1/1) Accurately ripped
10 | (1/1) Accurately ripped
11 | (1/1) Accurately ripped
12 | (1/1) Accurately ripped
13 | (1/1) Accurately ripped
14 | (1/1) Accurately ripped
15 | (1/1) Accurately ripped

==== Log checksum 9FCB3275F5220992D89CEFA7321ADA3E9BF46E2D3FD5A9DC7E1A64B8D1A4956A ====
Exact Audio Copy V1.0 beta 4 from 7. December 2014

EAC extraction logfile from 14. January 2015, 9:40

Various / Kerrang! The Album - Disk Two - Kerrang! Klassix!

Used drive : Optiarc DVD RW AD-7203A Adapter: 1 ID: 0

Read mode : Secure
Utilize accurate stream : Yes
Defeat audio cache : Yes
Make use of C2 pointers : No

Read offset correction : 48
Overread into Lead-In and Lead-Out : No
Fill up missing offset samples with silence : Yes
Delete leading and trailing silent blocks : No
Null samples used in CRC calculations : Yes
Used interface : Native Win32 interface for Win NT & 2000

Used output format : User Defined Encoder
Selected bitrate : 128 kBit/s
Quality : High
Add ID3 tag : No
Command line compressor : C:\Program Files\Exact Audio Copy\Flac\flac.exe
Additional command line options : -V -8 -T "Date=%year%" -T "Genre=%genre%" %source%

TOC of the extracted CD

Track | Start | Length | Start sector | End sector
---------------------------------------------------------
1 | 0:00.32 | 2:51.00 | 32 | 12856
2 | 2:51.32 | 2:47.50 | 12857 | 25431
3 | 5:39.07 | 5:04.25 | 25432 | 48256
4 | 10:43.32 | 7:13.10 | 48257 | 80741
5 | 17:56.42 | 8:20.50 | 80742 | 118291
6 | 26:17.17 | 9:45.00 | 118292 | 162166
7 | 36:02.17 | 4:03.25 | 162167 | 180416
8 | 40:05.42 | 6:18.25 | 180417 | 208791
9 | 46:23.67 | 3:51.00 | 208792 | 226116
10 | 50:14.67 | 4:57.48 | 226117 | 248439
11 | 55:12.40 | 3:43.52 | 248440 | 265216
12 | 58:56.17 | 4:51.15 | 265217 | 287056
13 | 63:47.32 | 3:20.25 | 287057 | 302081
14 | 67:07.57 | 3:25.50 | 302082 | 317506
15 | 70:33.32 | 9:06.25 | 317507 | 358481

Range status and errors

Selected range

Filename G:\Music\My Rips\s296\Various Artists - Kerrang! - The Album (1994, 2 CD, AHLCD21) - by s296\CD2 - Kerrang! - The Album - Disk Two - Kerrang! Klassix!\Various - Kerrang! The Album - Disk Two - Kerrang! Klassix!.wav

Peak level 100.0 %
Extraction speed 4.2 X
Range quality 99.9 %
Test CRC 6B769196
Copy CRC 6B769196
Copy OK

No errors occurred

AccurateRip summary

Track 1 accurately ripped (confidence 12) [766CFF56] (AR v2)
Track 2 accurately ripped (confidence 13) [90330416] (AR v2)
Track 3 accurately ripped (confidence 12) [E33D5B2A] (AR v2)
Track 4 accurately ripped (confidence 12) [8060E7E8] (AR v2)
Track 5 accurately ripped (confidence 12) [28CECACC] (AR v2)
Track 6 accurately ripped (confidence 11) [5E89231C] (AR v2)
Track 7 accurately ripped (confidence 12) [4E4CE2AB] (AR v2)
Track 8 accurately ripped (confidence 12) [1E8EBCE1] (AR v2)
Track 9 accurately ripped (confidence 12) [C60B720D] (AR v2)
Track 10 cannot be verified as accurate (confidence 13) [BFB420F1], AccurateRip returned [A5E34CBD] (AR v2)
Track 11 accurately ripped (confidence 12) [BC5CAA5B] (AR v2)
Track 12 accurately ripped (confidence 11) [1A6105E9] (AR v2)
Track 13 accurately ripped (confidence 12) [861E90E1] (AR v2)
Track 14 accurately ripped (confidence 12) [6833CDAE] (AR v2)
Track 15 accurately ripped (confidence 12) [E4486E74] (AR v2)

14 трек(и) скопированы точно
1 трек(и) не удалось проверить на точность

Some tracks could not be verified as accurate

End of status report

---- CUETools DB Plugin V2.1.4

[CTDB TOCID: APaoEujTRPf5k9GXx0SJyCQerLw-] disk not present in database
Submit result: APaoEujTRPf5k9GXx0SJyCQerLw- has been uploaded

==== Log checksum 84857540A114844D5D141B8F6C308CF96DD3C16990511EEC70601EF0D1EB1456 ====
Код: Выделить всё
REM GENRE Rock
REM DATE 1994
REM DISCID F70ED10F
REM COMMENT "ExactAudioCopy v1.0b4"
PERFORMER "Kerrang!"
TITLE "The Album - Disk One - Kontemporary Kaos"
FILE "Kerrang! - The Album - Disk One - Kontemporary Kaos.flac" WAVE
TRACK 01 AUDIO
TITLE "Soundgarden / Jesus Christ Pose"
PERFORMER "Kerrang!"
INDEX 00 00:00:00
INDEX 01 00:00:32
TRACK 02 AUDIO
TITLE "Prong / Another Worldly Device"
PERFORMER "Kerrang!"
INDEX 00 05:50:70
INDEX 01 05:51:32
TRACK 03 AUDIO
TITLE "Biohazard / Punishment"
PERFORMER "Kerrang!"
INDEX 00 09:15:45
INDEX 01 09:16:32
TRACK 04 AUDIO
TITLE "Therapy? / Auto Surgery"
PERFORMER "Kerrang!"
INDEX 00 14:02:40
INDEX 01 14:02:42
TRACK 05 AUDIO
TITLE "Sepeltura / Territory"
PERFORMER "Kerrang!"
INDEX 00 16:23:00
INDEX 01 16:23:32
TRACK 06 AUDIO
TITLE "Megadeth / Sweating Bullets"
PERFORMER "Kerrang!"
INDEX 00 21:10:72
INDEX 01 21:11:57
TRACK 07 AUDIO
TITLE "Pantera / Shedding Skin"
PERFORMER "Kerrang!"
INDEX 00 26:15:45
INDEX 01 26:16:32
TRACK 08 AUDIO
TITLE "The WIldhearts / Caffeine Bomb"
PERFORMER "Kerrang!"
INDEX 00 31:53:70
INDEX 01 31:55:07
TRACK 09 AUDIO
TITLE "Terrorvision / My House"
PERFORMER "Kerrang!"
INDEX 00 34:35:02
INDEX 01 34:35:32
TRACK 10 AUDIO
TITLE "Red Hot Chili Peppers / Give It Away (Edit)"
PERFORMER "Kerrang!"
INDEX 00 37:42:25
INDEX 01 37:43:32
TRACK 11 AUDIO
TITLE "Clawfinger / Warfair (Cybersank mix edit)"
PERFORMER "Kerrang!"
INDEX 00 42:26:67
INDEX 01 42:28:07
TRACK 12 AUDIO
TITLE "Duff McKagan / Believe In Me"
PERFORMER "Kerrang!"
INDEX 00 46:16:42
INDEX 01 46:17:57
TRACK 13 AUDIO
TITLE "Little Angels / Ten Miles High"
PERFORMER "Kerrang!"
INDEX 00 49:39:10
INDEX 01 49:39:57
TRACK 14 AUDIO
TITLE "The Almighty / Over The Edge"
PERFORMER "Kerrang!"
INDEX 00 52:56:32
INDEX 01 52:57:32
TRACK 15 AUDIO
TITLE "Alice In Chains / Down In A Hole"
PERFORMER "Kerrang!"
INDEX 00 57:33:02
INDEX 01 57:34:07
REM GENRE Rock
REM DATE 1994
REM DISCID D512AB0F
REM COMMENT "ExactAudioCopy v1.0b4"
PERFORMER "Various"
TITLE "Kerrang! The Album - Disk Two - Kerrang! Klassix!"
FILE "Various - Kerrang! The Album - Disk Two - Kerrang! Klassix!.flac" WAVE
TRACK 01 AUDIO
TITLE "Ace Of Spades (Live)"
PERFORMER "Motorhead"
INDEX 00 00:00:00
INDEX 01 00:00:32
TRACK 02 AUDIO
TITLE "Paranoid"
PERFORMER "Black Sabbath"
INDEX 00 02:50:12
INDEX 01 02:51:32
TRACK 03 AUDIO
TITLE "Smoke On The Water"
PERFORMER "Deep Purple"
INDEX 00 05:38:27
INDEX 01 05:39:07
TRACK 04 AUDIO
TITLE "Victim Of Changes (Live)"
PERFORMER "Judas Priest"
INDEX 00 10:42:55
INDEX 01 10:43:32
TRACK 05 AUDIO
TITLE "Stargazer"
PERFORMER "Rainbow"
INDEX 00 17:55:72
INDEX 01 17:56:42
TRACK 06 AUDIO
TITLE "Bat Out Of Hell"
PERFORMER "Meat Loaf"
INDEX 00 26:16:17
INDEX 01 26:17:17
TRACK 07 AUDIO
TITLE "Cats In The Cradle"
PERFORMER "Ugly Kid Joe"
INDEX 00 36:01:35
INDEX 01 36:02:17
TRACK 08 AUDIO
TITLE "In My Darkest Hour"
PERFORMER "Megadeth"
INDEX 00 40:05:00
INDEX 01 40:05:42
TRACK 09 AUDIO
TITLE "Doctor Doctor (Live)"
PERFORMER "UFO"
INDEX 00 46:23:02
INDEX 01 46:23:67
TRACK 10 AUDIO
TITLE "Spirit Of Radio"
PERFORMER "Rush"
INDEX 00 50:14:17
INDEX 01 50:14:67
TRACK 11 AUDIO
TITLE "Epic"
PERFORMER "Faith No More"
INDEX 00 55:12:07
INDEX 01 55:12:40
TRACK 12 AUDIO
TITLE "Angel Of Death"
PERFORMER "Slayer"
INDEX 00 58:55:52
INDEX 01 58:56:17
TRACK 13 AUDIO
TITLE "Youth Gone Wild"
PERFORMER "Skid Row"
INDEX 00 63:46:67
INDEX 01 63:47:32
TRACK 14 AUDIO
TITLE "Born To Be Wild"
PERFORMER "Steppenwolf"
INDEX 00 67:07:07
INDEX 01 67:07:57
TRACK 15 AUDIO
TITLE "Free Bird"
PERFORMER "Lynryd Skynyrd"
INDEX 00 70:32:65
INDEX 01 70:33:32
Код: Выделить всё
-----------------------

DON'T MODIFY THIS FILE

-----------------------

PERFORMER: auCDtect Task Manager, ver. 1.5.1RC4 build 1.5.1.5
Copyright (c) 2008-2010 y-soft. All rights reserved
[url=http://y-soft.org]http://y-soft.org[/url]

ANALYZER: auCDtect: CD records authenticity detector, version 0.8.2
Copyright (c) 2004 Oleg Berngardt. All rights reserved.
Copyright (c) 2004 Alexander Djourik. All rights reserved.

FILE: Kerrang! - The Album - Disk One - Kontemporary Kaos.flac
  Size: 478028355 Hash: 89BEB66D74DC356496ACACE01A321A84 Accuracy: -m0
  Conclusion: CDDA 100%
  Signature: B7FB8C7BACDF8596CF6DEDEBA34A6D9E71B6933F

-----------------------

DON'T MODIFY THIS FILE

-----------------------

PERFORMER: auCDtect Task Manager, ver. 1.5.1RC4 build 1.5.1.5
Copyright (c) 2008-2010 y-soft. All rights reserved
[url=http://y-soft.org]http://y-soft.org[/url]

ANALYZER: auCDtect: CD records authenticity detector, version 0.8.2
Copyright (c) 2004 Oleg Berngardt. All rights reserved.
Copyright (c) 2004 Alexander Djourik. All rights reserved.

FILE: Various - Kerrang! The Album - Disk Two - Kerrang! Klassix!.flac
  Size: 570501553 Hash: 5C65864071F5A0D7EC0596722B2C21FC Accuracy: -m0
  Conclusion: MPEG 95%
  Signature: 99A8BC2490F99D1F241040AB198CC0DA582B0632


Мои раздачи
 
Не забывайте говорить Спасибо. Не уходите с раздачи!   
Торрент: Зарегистрирован [10 авг 2015, 12:58] Для скачивания .torrent
необходима регистрация
Или скачать с помощью
MediaGet
Статус:
Проверен
 
.torrent скачан: 0 раз
Хэш: 6084c0ab847edd569c6bf206c49a58833b0a67cb
Размер: 1011.12 МБ (1 060 236 777 байт)
Стать Автором раздачи
 
Аватара пользователя
 
Раздал: 3.77 ТБ
Скачал: 406.3 ГБ
Ратио: 9.496
Сообщения: 468702
Зарегистрирован: 20 янв 2011, 21:15


  • Похожие торренты
    Ответы
    Просмотры
    Последнее сообщение

Вернуться в Сборники "Зарубежный Metal" (lossless)

Ресурс не предоставляет электронные версии произведений, а занимается лишь коллекционированием и каталогизацией ссылок, присылаемых и публикуемых на форуме нашими читателями. Если вы являетесь правообладателем какого-либо представленного материала и не желаете чтобы ссылка на него находилась в нашем каталоге, свяжитесь с нами и мы незамедлительно удалим её. Файлы для обмена на трекере предоставлены пользователями сайта, и администрация не несёт ответственности за их содержание. Просьба не заливать файлы, защищенные авторскими правами, а также файлы нелегального содержания!