(Heavy Metal, Hard Rock) [CD] VA - Psychosonic! Volume18 - 2000, FLAC (tracks+.cue), lossless

 
 Статистика раздачи 
Размер: 552.78 МБ   |  Зарегистрирован: 21 ноя 2015, 17:59   |   .torrent скачан: 0 раз
Сидеров: 1  [ 0 байт/сек ]     Личеров: 0  [ 0 байт/сек ]  
  

(Heavy Metal, Hard Rock) [CD] VA - Psychosonic! Volume18 - 2000, FLAC (tracks+.cue), lossless

Сообщение Master Chief » 21 ноя 2015, 17:59

.
Psychosonic! Volume18

Notes: Cardboard Sleeve,
Free With Italian Magazine Psycho! N°42 (Novembre 2000),
Not For Sale Separately.

Жанр: Heavy Metal, Hard Rock
Носитель
: CD
Страна-производитель диска (релиза): Italy
Год издания: 2000
Издатель (лейбл): Psycho!
Номер по каталогу: PSYCHOSONIC! VOL. 18
Аудиокодек: FLAC (*.flac)
Тип рипа: tracks+.cue
Битрейт аудио: lossless
Продолжительность: 00:56:18 / video: 00:10:11 / mp3: 00:30:03
Источник (релизер): stas64
Наличие сканов в содержимом раздачи: да - 600 dpi
.
.
Треклист:

01. Spineshank - Synthetic.
02. Corrosion Of Conformity - Who's Got The Fire.
03. Warmen - Into The Oblivion.
04. Peccatum - No Title For A Cause.
05. Infection Code - Martyr Millennium.
06. Yngwie J. Malmsteen's Rising Force - Bad Reputation.
07. Christian Death - Malevolent Shrew.
08. Quiet Riot - Metal Health (1999 Version).
09. Rhapsody - The Village Of Dwarves.
10. Voodoo Hill - Just Another Monday.
11. Enslaved - Daudningekvida.
12. Steve Walsh - Haunted Man.
13. Enchant - Broken Wave.

Код: Выделить всё
Exact Audio Copy V1.0 beta 3 from 29. August 2011

Отчёт EAC об извлечении, выполненном 5. ноября 2015, 21:43

Various / Psychosonic Volume18

Дисковод: DVDRW   DRW-6S160P   Adapter: 7  ID: 0

Режим чтения                 : Достоверность
Использование точного потока : Да
Отключение кэша аудио        : Да
Использование указателей C2  : Нет

Коррекция смещения при чтении                     : 6
Способность читать области Lead-in и Lead-out     : Нет
Заполнение пропущенных сэмплов тишиной            : Да
Удаление блоков с тишиной в начале и конце        : Нет
При вычислениях CRC использовались нулевые сэмплы : Да
Интерфейс                                         : Установленный внешний ASPI-интерфейс
Обработка зазоров                                 : Добавлено к предыдущему треку

Выходной формат          : Пользовательский кодировщик
Выбранный битрейт        : 128 kBit/s
Качество                 : Высокий
Добавление ID3-тега      : Нет
Утилита сжатия           : C:\Program Files\Exact Audio Copy\FLAC\FLAC.EXE
Дополнительные параметры : -V -8 -T "Genre=%genre%" -T "Artist=%artist%" -T "Title=%title%" -T "Album=%albumtitle%" -T "Date=%year%" -T "Tracknumber=%tracknr%" -T "Comment=%comment%" %source%

TOC извлечённого CD

     Трек |   Старт  | Длительность | Начальный сектор | Конечный сектор
    ---------------------------------------------------------------------
       1  |  0:00.00 |   15:06.26   |           0      |      67975
       2  | 15:06.26 |    3:11.32   |       67976      |      82332
       3  | 18:17.58 |    3:16.09   |       82333      |      97041
       4  | 21:33.67 |    3:54.11   |       97042      |     114602
       5  | 25:28.03 |    4:07.07   |      114603      |     133134
       6  | 29:35.10 |    3:59.21   |      133135      |     151080
       7  | 33:34.31 |    4:54.24   |      151081      |     173154
       8  | 38:28.55 |    4:49.01   |      173155      |     194830
       9  | 43:17.56 |    5:13.52   |      194831      |     218357
      10  | 48:31.33 |    3:54.12   |      218358      |     235919
      11  | 52:25.45 |    4:26.66   |      235920      |     255935
      12  | 56:52.36 |    3:30.28   |      255936      |     271713
      13  | 60:22.64 |    5:38.23   |      271714      |     297086
      14  | 66:01.12 |    5:23.42   |      297087      |     321353

Трек  2

     Имя файла I:\MOI_RAZDACI\VA Psychosonic Volume18\VA_Psychosonic.Volume18_2000\02. Spineshank - Synthetic.wav

     Длина предзазора  0:00:01.69

     Пиковый уровень 99.8 %
     Скорость извлечения 5.3 X
     Качество трека 100.0 %
     CRC теста 4BF28EE4
     CRC копии 4BF28EE4
     Трек не обнаружен в базе AccurateRip
     Копирование... OK

Трек  3

     Имя файла I:\MOI_RAZDACI\VA Psychosonic Volume18\VA_Psychosonic.Volume18_2000\03. Corrosion Of Conformity - Who's Got The Fire.wav

     Длина предзазора  0:00:02.03

     Пиковый уровень 98.9 %
     Скорость извлечения 6.5 X
     Качество трека 100.0 %
     CRC теста 9BC2C5AC
     CRC копии 9BC2C5AC
     Трек не обнаружен в базе AccurateRip
     Копирование... OK

Трек  4

     Имя файла I:\MOI_RAZDACI\VA Psychosonic Volume18\VA_Psychosonic.Volume18_2000\04. Warmen - Into The Oblivion.wav

     Длина предзазора  0:00:01.20

     Пиковый уровень 97.3 %
     Скорость извлечения 6.9 X
     Качество трека 100.0 %
     CRC теста 5BFE7F6F
     CRC копии 5BFE7F6F
     Трек не обнаружен в базе AccurateRip
     Копирование... OK

Трек  5

     Имя файла I:\MOI_RAZDACI\VA Psychosonic Volume18\VA_Psychosonic.Volume18_2000\05. Peccatum - No Title For A Cause.wav

     Длина предзазора  0:00:01.72

     Пиковый уровень 100.0 %
     Скорость извлечения 7.3 X
     Качество трека 100.0 %
     CRC теста 6E9FB50C
     CRC копии 6E9FB50C
     Трек не обнаружен в базе AccurateRip
     Копирование... OK

Трек  6

     Имя файла I:\MOI_RAZDACI\VA Psychosonic Volume18\VA_Psychosonic.Volume18_2000\06. Infection Code - Martyr Millennium.wav

     Длина предзазора  0:00:01.57

     Пиковый уровень 100.0 %
     Скорость извлечения 7.5 X
     Качество трека 100.0 %
     CRC теста C48EF204
     CRC копии C48EF204
     Трек не обнаружен в базе AccurateRip
     Копирование... OK

Трек  7

     Имя файла I:\MOI_RAZDACI\VA Psychosonic Volume18\VA_Psychosonic.Volume18_2000\07. Yngwie J. Malmsteen's Rising Force - Bad Reputation.wav

     Длина предзазора  0:00:02.06

     Пиковый уровень 98.1 %
     Скорость извлечения 7.9 X
     Качество трека 100.0 %
     CRC теста 84E50162
     CRC копии 84E50162
     Трек не обнаружен в базе AccurateRip
     Копирование... OK

Трек  8

     Имя файла I:\MOI_RAZDACI\VA Psychosonic Volume18\VA_Psychosonic.Volume18_2000\08. Christian Death - Malevolent Shrew.wav

     Длина предзазора  0:00:01.29

     Пиковый уровень 97.9 %
     Скорость извлечения 8.3 X
     Качество трека 100.0 %
     CRC теста A85244C3
     CRC копии A85244C3
     Трек не обнаружен в базе AccurateRip
     Копирование... OK

Трек  9

     Имя файла I:\MOI_RAZDACI\VA Psychosonic Volume18\VA_Psychosonic.Volume18_2000\09. Quiet Riot - Metal Health (1999 Version).wav

     Длина предзазора  0:00:02.13

     Пиковый уровень 100.0 %
     Скорость извлечения 7.6 X
     Качество трека 99.9 %
     CRC теста 50A81E18
     CRC копии 50A81E18
     Трек не обнаружен в базе AccurateRip
     Копирование... OK

Трек 10

     Имя файла I:\MOI_RAZDACI\VA Psychosonic Volume18\VA_Psychosonic.Volume18_2000\10. Rhapsody - The Village Of Dwarves.wav

     Длина предзазора  0:00:01.19

     Пиковый уровень 98.8 %
     Скорость извлечения 8.6 X
     Качество трека 100.0 %
     CRC теста 1F237AC6
     CRC копии 1F237AC6
     Трек не обнаружен в базе AccurateRip
     Копирование... OK

Трек 11

     Имя файла I:\MOI_RAZDACI\VA Psychosonic Volume18\VA_Psychosonic.Volume18_2000\11. Voodoo Hill - Just Another Monday.wav

     Длина предзазора  0:00:01.72

     Пиковый уровень 100.0 %
     Скорость извлечения 7.8 X
     Качество трека 99.9 %
     CRC теста F650EE39
     CRC копии F650EE39
     Трек не обнаружен в базе AccurateRip
     Копирование... OK

Трек 12

     Имя файла I:\MOI_RAZDACI\VA Psychosonic Volume18\VA_Psychosonic.Volume18_2000\12. Enslaved - Daudningekvida.wav

     Длина предзазора  0:00:01.18

     Пиковый уровень 100.0 %
     Скорость извлечения 8.9 X
     Качество трека 100.0 %
     CRC теста 07E9EEBB
     CRC копии 07E9EEBB
     Трек не обнаружен в базе AccurateRip
     Копирование... OK

Трек 13

     Имя файла I:\MOI_RAZDACI\VA Psychosonic Volume18\VA_Psychosonic.Volume18_2000\13. Steve Walsh - Haunted Man.wav

     Длина предзазора  0:00:01.30

     Пиковый уровень 98.8 %
     Скорость извлечения 8.5 X
     Качество трека 99.9 %
     CRC теста 86E5BB31
     CRC копии 86E5BB31
     Трек не обнаружен в базе AccurateRip
     Копирование... OK

Трек 14

     Имя файла I:\MOI_RAZDACI\VA Psychosonic Volume18\VA_Psychosonic.Volume18_2000\14. Enchant - Broken Wave.wav

     Длина предзазора  0:00:02.15

     Пиковый уровень 98.8 %
     Скорость извлечения 10.0 X
     Качество трека 100.0 %
     CRC теста 60AF9D99
     CRC копии 60AF9D99
     Трек не обнаружен в базе AccurateRip
     Копирование... OK

Ни одного трека нет в базе AccurateRip

Ошибок не произошло

Конец отчёта

==== Контрольная сумма отчёта 9F909137229A915C859C6102E6E75AABDEF500C7BDD3DBA1B16A05E157B5C60C ====
Код: Выделить всё
REM GENRE "Heavy Metal"
REM DATE 2000
REM DISCID CC10BC0E
REM COMMENT "ExactAudioCopy v1.0b3"
PERFORMER "Various"
TITLE "Psychosonic Volume18"
FILE "<Filename>.iso" BINARY
  TRACK 01 MODEx/2xxx
    TITLE "Трек01"
    PERFORMER "Various"
    INDEX 01 00:00:00
  TRACK 02 AUDIO
    TITLE "Synthetic"
    PERFORMER "Spineshank"
    INDEX 00 15:04:32
FILE "02. Spineshank - Synthetic.wav" WAVE
    INDEX 01 00:00:00
  TRACK 03 AUDIO
    TITLE "Who's Got The Fire"
    PERFORMER "Corrosion Of Conformity"
    INDEX 00 03:09:29
FILE "03. Corrosion Of Conformity - Who's Got The Fire.wav" WAVE
    INDEX 01 00:00:00
  TRACK 04 AUDIO
    TITLE "Into The Oblivion"
    PERFORMER "Warmen"
    INDEX 00 03:14:64
FILE "04. Warmen - Into The Oblivion.wav" WAVE
    INDEX 01 00:00:00
  TRACK 05 AUDIO
    TITLE "No Title For A Cause"
    PERFORMER "Peccatum"
    INDEX 00 03:52:14
FILE "05. Peccatum - No Title For A Cause.wav" WAVE
    INDEX 01 00:00:00
  TRACK 06 AUDIO
    TITLE "Martyr Millennium"
    PERFORMER "Infection Code"
    INDEX 00 04:05:25
FILE "06. Infection Code - Martyr Millennium.wav" WAVE
    INDEX 01 00:00:00
  TRACK 07 AUDIO
    TITLE "Bad Reputation"
    PERFORMER "Yngwie J. Malmsteen's Rising Force"
    INDEX 00 03:57:15
FILE "07. Yngwie J. Malmsteen's Rising Force - Bad Reputation.wav" WAVE
    INDEX 01 00:00:00
  TRACK 08 AUDIO
    TITLE "Malevolent Shrew"
    PERFORMER "Christian Death"
    INDEX 00 04:52:70
FILE "08. Christian Death - Malevolent Shrew.wav" WAVE
    INDEX 01 00:00:00
  TRACK 09 AUDIO
    TITLE "Metal Health (1999 Version)"
    PERFORMER "Quiet Riot"
    INDEX 00 04:46:63
FILE "09. Quiet Riot - Metal Health (1999 Version).wav" WAVE
    INDEX 01 00:00:00
  TRACK 10 AUDIO
    TITLE "The Village Of Dwarves"
    PERFORMER "Rhapsody"
    INDEX 00 05:12:33
FILE "10. Rhapsody - The Village Of Dwarves.wav" WAVE
    INDEX 01 00:00:00
  TRACK 11 AUDIO
    TITLE "Just Another Monday"
    PERFORMER "Voodoo Hill"
    INDEX 00 03:52:15
FILE "11. Voodoo Hill - Just Another Monday.wav" WAVE
    INDEX 01 00:00:00
  TRACK 12 AUDIO
    TITLE "Daudningekvida"
    PERFORMER "Enslaved"
    INDEX 00 04:25:48
FILE "12. Enslaved - Daudningekvida.wav" WAVE
    INDEX 01 00:00:00
  TRACK 13 AUDIO
    TITLE "Haunted Man"
    PERFORMER "Steve Walsh"
    INDEX 00 03:28:73
FILE "13. Steve Walsh - Haunted Man.wav" WAVE
    INDEX 01 00:00:00
  TRACK 14 AUDIO
    TITLE "Broken Wave"
    PERFORMER "Enchant"
    INDEX 00 05:36:08
FILE "14. Enchant - Broken Wave.wav" WAVE
    INDEX 01 00:00:00
Код: Выделить всё
-----------------------

DON'T MODIFY THIS FILE

-----------------------

PERFORMER: auCDtect Task Manager, ver. 1.5.1RC6 build 1.5.1.7
Copyright (c) 2008-2010 y-soft. All rights reserved
[url=http://y-soft.org]http://y-soft.org[/url]

ANALYZER: auCDtect: CD records authenticity detector, version 0.8.2
Copyright (c) 2004 Oleg Berngardt. All rights reserved.
Copyright (c) 2004 Alexander Djourik. All rights reserved.

FILE: 14. Enchant - Broken Wave.flac
  Size: 38069457 Hash: DA5E654A1C5A9EFD4A6BE8301FA388AC Accuracy: -m0
  Conclusion: CDDA 100%
  Signature: 3571AB4629B3151F4ABEFA67A1BA6D34E18437D3
FILE: 13. Steve Walsh - Haunted Man.flac
  Size: 39461683 Hash: 0F390F013EEF661ED46094513AA02BC3 Accuracy: -m0
  Conclusion: CDDA 100%
  Signature: C04EDC955714BABD908A0A8BD6E801C9C1221A8C
FILE: 12. Enslaved - Daudningekvida.flac
  Size: 29167280 Hash: 17DCE14E1CC33EDFF5C86788014172C6 Accuracy: -m0
  Conclusion: CDDA 99%
  Signature: 4BB4C20FB79D77200A0A85CB60E44B3609B6ADA8
FILE: 11. Voodoo Hill - Just Another Monday.flac
  Size: 36142280 Hash: B3286751C5B5531CB1DAFA7920E25D5C Accuracy: -m0
  Conclusion: CDDA 100%
  Signature: 070349D4F2EFC5176CFEBA80FB7ADEE31B713ECC
FILE: 10. Rhapsody - The Village Of Dwarves.flac
  Size: 28544201 Hash: 76EB3F016D548C1E608A4DCD5A3FBB41 Accuracy: -m0
  Conclusion: CDDA 100%
  Signature: E59BE71060D6A8FBC011C55F9EE826C30CE2C190
FILE: 09. Quiet Riot - Metal Health (1999 Version).flac
  Size: 42304617 Hash: 4A5F7406935D5F5B1BE2DEE2A6A13D24 Accuracy: -m0
  Conclusion: CDDA 100%
  Signature: 8C9BEF8E0B2DABB29381EB3EBE241616CA19B6C0
FILE: 08. Christian Death - Malevolent Shrew.flac
  Size: 35482437 Hash: 070C4CB1F9EF4CAA3C7DED8F6E889472 Accuracy: -m0
  Conclusion: CDDA 99%
  Signature: A7A29825FC6F20A1760D56773E394FAC9F6BC565
FILE: 07. Yngwie J. Malmsteen's Rising Force - Bad Reputation.flac
  Size: 35392596 Hash: DB09D594F7295AD8E5AEC2AEA66EBBAF Accuracy: -m0
  Conclusion: CDDA 100%
  Signature: 892831D9E2D3A3384733D880F8B0538808A21804
FILE: 06. Infection Code - Martyr Millennium.flac
  Size: 31529799 Hash: 70B80B82FD3DAAE9C718F962D3601936 Accuracy: -m0
  Conclusion: CDDA 100%
  Signature: 029EA4C9C98C9F10E6D9B388F993F4AE8D9B38EC
FILE: 05. Peccatum - No Title For A Cause.flac
  Size: 31799871 Hash: F4855F0303F8A1C88BFBB4F340A46C9F Accuracy: -m0
  Conclusion: CDDA 100%
  Signature: 50BA4221E64EDA3A96B5F48D1B9B4D2CD101AD40
FILE: 04. Warmen - Into The Oblivion.flac
  Size: 32486383 Hash: 27B2080250F5397B975B26AAEF93CE71 Accuracy: -m0
  Conclusion: CDDA 100%
  Signature: 0BBEA40F907E85BDD544DD0E918799FED33691F2
FILE: 03. Corrosion Of Conformity - Who's Got The Fire.flac
  Size: 23662317 Hash: 0BDD2155FBE57994B6718496DC216162 Accuracy: -m0
  Conclusion: CDDA 100%
  Signature: BB6B5DAED71DC220909BBC7D90C8D21356609988
FILE: 02. Spineshank - Synthetic.flac
  Size: 26011881 Hash: 12DB9D9C5BB5996564219D8180D0F115 Accuracy: -m0
  Conclusion: CDDA 99%
  Signature: FF2D4A0EEABC0E8C5414439D225A3EB8E335CFB4
.
CD-Extra


Video:

01. Hardcore Superstar
- Liberation (3:40).
02. Undertakers - Dead Man Walking (2:38).
03. Gwar - Fucking An Animal (3:09).
Код: Выделить всё
Общее
Полное имя                               : I:\01. Hardcore Superstar - Liberation.mpeg
Формат                                   : MPEG-PS
Размер файла                             : 24,8 Мбайт
Продолжительность                        : 3 м. 54 с.
Общий поток                              : 889 Кбит/сек

Видео
Идентификатор                            : 224 (0xE0)
Формат                                   : MPEG Video
Версия формата                           : Version 1
Параметр BVOP формата                    : Да
Параметр матрицы формата                 : По умолчанию
Параметр GOP формата                     : M=3, N=15
Продолжительность                        : 3 м. 54 с.
Битрейт                                  : 763 Кбит/сек
Ширина                                   : 336 пикселей
Высота                                   : 176 пикселей
Соотношение сторон                       : 1,909
Частота кадров                           : 25,000 кадров/сек
Цветовое пространство                    : YUV
Субдискретизация насыщенности            : 4:2:0
Битовая глубина                          : 8 бит
Тип развёртки                            : Прогрессивная
Метод сжатия                             : С потерями
Бит/(Пиксели*Кадры)                      : 0.516
Временной код первого кадра              : 00:00:00:00
Оригинал временного кода                 : Group of pictures header
Размер потока                            : 21,2 Мбайт (85%)

Аудио
Идентификатор                            : 192 (0xC0)
Формат                                   : MPEG Audio
Версия формата                           : Version 1
Профиль формата                          : Layer 2
Режим                                    : Joint stereo
Продолжительность                        : 3 м. 54 с.
Вид битрейта                             : Постоянный
Битрейт                                  : 112 Кбит/сек
Каналы                                   : 2 канала
Частота                                  : 44,1 КГц
Метод сжатия                             : С потерями
Задержка видео                           : -80 мс.
Размер потока                            : 3,13 Мбайт (13%)
Код: Выделить всё
Общее
Полное имя                               : I:\02. Undertakers - Dead Man Walking.mov
Формат                                   : QuickTime
Формат/Информация                        : Original Apple specifications
Размер файла                             : 50,9 Мбайт
Продолжительность                        : 3 м. 12 с.
Общий поток                              : 2223 Кбит/сек
Дата кодирования                         : UTC 2000-02-14 16:35:49
Дата пометки                             : UTC 2000-02-14 16:36:40
Библиотека кодирования                   : Apple QuickTime

Видео
Идентификатор                            : 1
Формат                                   : Cinepack
Идентификатор кодека                     : cvid
Продолжительность                        : 3 м. 12 с.
Duration_LastFrame                       : -28 мс.
Битрейт                                  : 2128 Кбит/сек
Ширина                                   : 320 пикселей
Высота                                   : 240 пикселей
Соотношение сторон                       : 4:3
Режим частоты кадров                     : Постоянный
Частота кадров                           : 15,000 кадров/сек
Бит/(Пиксели*Кадры)                      : 1.847
Размер потока                            : 48,7 Мбайт (96%)
Язык                                     : English
Дата кодирования                         : UTC 2000-02-14 15:49:34
Дата пометки                             : UTC 2000-02-14 16:36:40

Аудио
Идентификатор                            : 2
Формат                                   : ADPCM
Параметр Firm формата                    : IMA
Идентификатор кодека                     : ima4
Продолжительность                        : 3 м. 12 с.
Вид битрейта                             : Постоянный
Битрейт                                  : 176,4 Кбит/сек
Каналы                                   : 1 канал
Частота                                  : 22,05 КГц
Битовая глубина                          : 16 бит
Размер потока                            : 4,04 Мбайт (8%)
Язык                                     : English
Дата кодирования                         : UTC 2000-02-14 15:49:34
Дата пометки                             : UTC 2000-02-14 16:36:40
Код: Выделить всё
Общее
Полное имя                               : I:\03. Gwar - Fucking An Animals.mpeg
Формат                                   : MPEG-PS
Размер файла                             : 28,9 Мбайт
Продолжительность                        : 3 м. 4 с.
Общий поток                              : 1310 Кбит/сек

Видео
Идентификатор                            : 224 (0xE0)
Формат                                   : MPEG Video
Версия формата                           : Version 1
Параметр BVOP формата                    : Да
Параметр матрицы формата                 : По умолчанию
Параметр GOP формата                     : M=3, N=15
Продолжительность                        : 3 м. 4 с.
Битрейт                                  : 1179 Кбит/сек
Ширина                                   : 336 пикселей
Высота                                   : 272 пикселя
Соотношение сторон                       : 5:4
Частота кадров                           : 25,000 кадров/сек
Цветовое пространство                    : YUV
Субдискретизация насыщенности            : 4:2:0
Битовая глубина                          : 8 бит
Тип развёртки                            : Прогрессивная
Метод сжатия                             : С потерями
Бит/(Пиксели*Кадры)                      : 0.516
Временной код первого кадра              : 00:00:00:00
Оригинал временного кода                 : Group of pictures header
Размер потока                            : 25,8 Мбайт (89%)

Аудио
Идентификатор                            : 192 (0xC0)
Формат                                   : MPEG Audio
Версия формата                           : Version 1
Профиль формата                          : Layer 2
Режим                                    : Joint stereo
Продолжительность                        : 3 м. 4 с.
Вид битрейта                             : Постоянный
Битрейт                                  : 112 Кбит/сек
Каналы                                   : 2 канала
Частота                                  : 44,1 КГц
Метод сжатия                             : С потерями
Задержка видео                           : -80 мс.
Размер потока                            : 2,47 Мбайт (9%)
MP3:

01. White Electric Co
- Interface
02. Pastano - Jazz Subliminale
03. Afterglow - No Shelter
04. Disumana Res - Still
05. Consecrated - Heavy And...
06. Proxima - Ghost Of A Memory
07. All In Vain - Revelations
Код: Выделить всё
Общее
Полное имя                               : I:\01_White Electric Co - Interface.mp3
Формат                                   : MPEG Audio
Размер файла                             : 3,69 Мбайт
Продолжительность                        : 4 м. 1 с.
Режим общего битрейта                    : Постоянный
Общий поток                              : 128 Кбит/сек
Трек                                     : 01_White Electric Co - Interfa
Исполнитель                              : Sconosciuto

Аудио
Формат                                   : MPEG Audio
Версия формата                           : Version 1
Профиль формата                          : Layer 3
Режим                                    : Joint stereo
Расширение режима                        : MS Stereo
Продолжительность                        : 4 м. 2 с.
Вид битрейта                             : Постоянный
Битрейт                                  : 128 Кбит/сек
Каналы                                   : 2 канала
Частота                                  : 44,1 КГц
Метод сжатия                             : С потерями
Размер потока                            : 3,69 Мбайт (100%)
Прямые кликабельные ссылки на раздачи.
Direct clickable links to hand.




























Прямые кликабельные ссылки на раздачи.
Direct clickable links to hand.
































Прямые кликабельные ссылки на раздачи.
Direct clickable links to hand.


























 
Не забывайте говорить Спасибо. Не уходите с раздачи!   
Торрент: Зарегистрирован [21 ноя 2015, 17:59] Для скачивания .torrent
необходима регистрация
Или скачать с помощью
MediaGet
Статус:
Проверен
 
.torrent скачан: 0 раз
Хэш: d1ab037a91f1101548cacabd16d3880e106746c6
Размер: 552.78 МБ (579 636 545 байт)
Стать Автором раздачи
 
Аватара пользователя
Администратор
Администратор
 
Раздал: 56.73 ТБ
Скачал: 79.93 ТБ
Ратио: 0.710
Сообщения: 76582
Зарегистрирован: 07 янв 2011, 16:36


  • Похожие торренты
    Ответы
    Просмотры
    Последнее сообщение

Вернуться в Сборники "Зарубежный Metal" (lossless)

Ресурс не предоставляет электронные версии произведений, а занимается лишь коллекционированием и каталогизацией ссылок, присылаемых и публикуемых на форуме нашими читателями. Если вы являетесь правообладателем какого-либо представленного материала и не желаете чтобы ссылка на него находилась в нашем каталоге, свяжитесь с нами и мы незамедлительно удалим её. Файлы для обмена на трекере предоставлены пользователями сайта, и администрация не несёт ответственности за их содержание. Просьба не заливать файлы, защищенные авторскими правами, а также файлы нелегального содержания!