Ванпанчмен / One Punch Man [OVERLORDS] (Нацумэ Синго) [2015, Комедия, Экшен, Приключения, Сэйнэн, Фантастика, HDTVRip]

 
 Статистика раздачи 
Размер: 7.71 ГБ   |  Зарегистрирован: 06 янв 2016, 22:58   |   .torrent скачан: 0 раз
Сидеров: 2  [ 0 байт/сек ]     Личеров: 5  [ 0 байт/сек ]  
  

Ванпанчмен / One Punch Man [OVERLORDS] (Нацумэ Синго) [2015, Комедия, Экшен, Приключения, Сэйнэн, Фантастика, HDTVRip]

Сообщение bagouser » 06 янв 2016, 22:58

Ванпанчмен / One Punch Man

Перевод: Любительский (одноголосый), cубтитры: отсутствуют
Формат: HDTVRip, MKV, Другой MPEG4, MP3
Страна: Япония

Режиссер: Нацумэ Синго
Жанр: Комедия, Экшен, Приключения, Сэйнэн, Фантастика
Продолжительность: ТВ (12 из 12 эп.), 25 мин. + OVA, 25 мин.
Год выпуска: 2015
Озвучка: OVERLORDS
Студия:

Описание: [color=darkgreen]В этом анимационном сериале вы не увидите мегабаталий или персонажей в доспехах, но вам гарантирован адреналин в крови и не менее эффектные бои! Этот проект от студии Madhouse дарит вам героя, который не носит меча и не имеет заготовок для красного словца, вообще его сложно назвать героем. Сайтама кажется совершенно обычным парнем, к тому же лысый и имеющий астеническое худое тело. Но у Сайтамы проблем больше чем у парней, которые похожи на него, ведь в действительности он супергерой! Он постоянно желает встретиться с достойными врагами. Когда Сайтам все-таки находит себе соответствующего врага, то вырубает его с одного удара. Найдет ли себе герой врага, который был бы равным ему? Будьте вместе с Ванпанчменом и понаблюдайте сами, что у него получится из этого! Его и вас ждет долгая и забавная история!

Рейтинг на World-art: 9.0227
Видео: AVC at 3308 Кбит/сек, 1280 x 720 (1.778) at 23.976 fps
Аудио: MPEG Audio at 320 Кбит/сек, 2 канала, 48,0 КГц

MediaInfo:
Общее
Уникальный идентификатор : 245569137430872525952097298890847411973 (0xB8BEE540C4DBC5D685F1CD53C3FFDF05)
Полное имя : G:one punch manOne-Punch Man 1 серия русская озвучка OVERLORDS.mkv
Формат : Matroska
Версия формата : Version 4 / Version 2
Размер файла : 634 Мбайт
Продолжительность : 24 м.
Режим общего битрейта : Постоянный
Общий поток : 3632 Кбит/сек
Дата кодирования : UTC 2015-10-04 19:54:37
Программа кодирования : mkvmerge v8.1.0 ('Psychedelic Postcard') 64bit
Библиотека кодирования : libebml v1.3.1 + libmatroska v1.4.2
Attachments : OpenSans-Semibold.ttf

Видео
Идентификатор : 1
Формат : AVC
Формат/Информация : Advanced Video Codec
Профиль формата :
Параметр CABAC формата : Да
Параметр ReFrames формата : 4 кадра
Идентификатор кодека : V_MPEG4/ISO/AVC
Продолжительность : 24 м.
Вид битрейта : Постоянный
Битрейт : 3308 Кбит/сек
Номинальный битрейт : 3808 Кбит/сек / 3808 Кбит/сек
Ширина : 1280 пикселей
Высота : 720 пикселей
Соотношение сторон : 16:9
Режим частоты кадров : Переменный
Частота кадров : 23,976 кадра/сек
Стандарт вещания : NTSC
Цветовое пространство : YUV
Субдискретизация насыщенности : 4:2:0
Битовая глубина : 8 бит
Тип развёртки : Прогрессивная
Бит/(Пиксели*Кадры) : 0.150
Размер потока : 578 Мбайт (91%)
Заголовок : [BudLightSubs]
Библиотека кодирования : x264 core 136
Настройки программы : cabac=1 / ref=4 / deblock=1:0:0 / analyse=0x1:0x111 / me=hex / subme=7 / psy=1 / psy_rd=1.00:0.00 / mixed_ref=1 / me_range=16 / chroma_me=1 / trellis=1 / 8x8dct=0 / cqm=0 / deadzone=21,11 / fast_pskip=1 / chroma_qp_offset=-2 / threads=12 / lookahead_threads=2 / sliced_threads=0 / slices=1 / nr=0 / decimate=1 / interlaced=0 / bluray_compat=0 / stitchable=1 / constrained_intra=0 / bframes=3 / b_pyramid=0 / b_adapt=1 / b_bias=0 / direct=1 / weightb=1 / open_gop=0 / weightp=1 / keyint=48 / keyint_min=25 / scenecut=0 / intra_refresh=0 / rc_lookahead=40 / rc=cbr / mbtree=1 / bitrate=3808 / ratetol=1.0 / qcomp=0.60 / qpmin=0 / qpmax=69 / qpstep=4 / vbv_maxrate=3808 / vbv_bufsize=3808 / nal_hrd=cbr / ip_ratio=1.40 / aq=1:1.00
Default : Да
Forced : Нет
Цветовой диапазон : Limited
Основные цвета : BT.709
Характеристики трансфера : BT.709
Коэффициенты матрицы : BT.709

Аудио
Идентификатор : 2
Формат : MPEG Audio
Версия формата : Version 1
Профиль формата : Layer 3
Режим : Joint stereo
Идентификатор кодека : A_MPEG/L3
Идентификатор кодека/Подсказка : MP3
Продолжительность : 24 м.
Вид битрейта : Постоянный
Битрейт : 320 Кбит/сек
Каналы : 2 канала
Частота : 48,0 КГц
Частота кадров : 41,667 кадра/сек (1152 spf)
Метод сжатия : С потерями
Задержка видео : -41 мс.
Размер потока : 55,9 Мбайт (9%)
Default : Да
Forced : Нет






 
Не забывайте говорить Спасибо. Не уходите с раздачи!   
Торрент: Зарегистрирован [06 янв 2016, 22:58] Для скачивания .torrent
необходима регистрация
Или скачать с помощью
MediaGet
Статус:
Проверен
 
.torrent скачан: 0 раз
Хэш: 908b0a3eb394c6a36f2a2049600b1491f606ddda
Размер: 7.71 ГБ (8 279 417 047 байт)
Стать Автором раздачи
 
Аватара пользователя
 
Раздал: 3.77 ТБ
Скачал: 406.3 ГБ
Ратио: 9.496
Сообщения: 468702
Зарегистрирован: 20 янв 2011, 21:15


  • Похожие торренты
    Ответы
    Просмотры
    Последнее сообщение

Вернуться в Аниме и всё, что с ним связано

Ресурс не предоставляет электронные версии произведений, а занимается лишь коллекционированием и каталогизацией ссылок, присылаемых и публикуемых на форуме нашими читателями. Если вы являетесь правообладателем какого-либо представленного материала и не желаете чтобы ссылка на него находилась в нашем каталоге, свяжитесь с нами и мы незамедлительно удалим её. Файлы для обмена на трекере предоставлены пользователями сайта, и администрация не несёт ответственности за их содержание. Просьба не заливать файлы, защищенные авторскими правами, а также файлы нелегального содержания!
cron