(Heavy Metal, Hard Rock...) [CD] VA - Dynamit Vol. 17 - 1999, FLAC (image+.cue), lossless

 
 Статистика раздачи 
Размер: 556.45 МБ   |  Зарегистрирован: 11 фев 2016, 09:30   |   .torrent скачан: 0 раз
Сидеров: 1  [ 0 байт/сек ]     Личеров: 0  [ 0 байт/сек ]  
  

(Heavy Metal, Hard Rock...) [CD] VA - Dynamit Vol. 17 - 1999, FLAC (image+.cue), lossless

Сообщение Master Chief » 11 фев 2016, 09:30

Dynamit
.. Vol. 17

Notes:

Given away free in a cardboard sleeve with German magazine "Rock Hard"
issue #146 (July 1999).

Жанр: Death Metal, Stoner Rock, Heavy Metal, Thrash, Hardcore, Hard Rock
Носитель
: CD
Страна-производитель диска (релиза): Germany
Год издания: Jun 1999
Издатель (лейбл): RockHard
Номер по каталогу: none
Аудиокодек: FLAC (*.flac)
Тип рипа: image+.cue
Битрейт аудио: lossless
Продолжительность: 01:13:53
Источник (релизер): stas64
Наличие сканов в содержимом раздачи: да - 600 dpi

01. Suicidal Tendencies
- Freedumb.
02. Metal Church - Pound of Cure.
03. Machine Head - Nothing Left.
04. Soulmotor - Guardian Angel.
05. Painflow - Frontline.
06. Gardenian - Deserted.
07. Six Feet Under - Feasting on the Blood of the Insane.
08. 7Zuma7 - Over&over&over.
09. Dokken - Erase the Slate.
10. Arch Enemy - The Immortal.
11. Dark Tranquillity - FreeCard.
12. Primal Fear - Final Embrace.
13. Darkane - Convicted.
14. Metalium - Metalium.
15. Sinergy - Beware the Heavens.
16. Enola Gay - Browsing.
17. Mercyful Fate - Kiss the Demon.
18. The Bronx Casket Co. - No Miracles.


Код: Выделить всё
Exact Audio Copy V1.0 beta 3 from 29. August 2011

Отчёт EAC об извлечении, выполненном 10. февраля 2016, 18:58

Various Artists / Rock Hard - Dynamit, Volume 17

Дисковод: DVDRW   DRW-6S160P   Adapter: 8  ID: 0

Режим чтения                 : Достоверность
Использование точного потока : Да
Отключение кэша аудио        : Да
Использование указателей C2  : Нет

Коррекция смещения при чтении                     : 6
Способность читать области Lead-in и Lead-out     : Нет
Заполнение пропущенных сэмплов тишиной            : Да
Удаление блоков с тишиной в начале и конце        : Нет
При вычислениях CRC использовались нулевые сэмплы : Да
Интерфейс                                         : Установленный внешний ASPI-интерфейс

Выходной формат          : Пользовательский кодировщик
Выбранный битрейт        : 128 kBit/s
Качество                 : Высокий
Добавление ID3-тега      : Нет
Утилита сжатия           : C:\Program Files\Exact Audio Copy\FLAC\FLAC.EXE
Дополнительные параметры : -V -8 -T "Genre=%genre%" -T "Artist=%artist%" -T "Title=%title%" -T "Album=%albumtitle%" -T "Date=%year%" -T "Tracknumber=%tracknr%" -T "Comment=%comment%" %source%

TOC извлечённого CD

     Трек |   Старт  | Длительность | Начальный сектор | Конечный сектор
    ---------------------------------------------------------------------
       1  |  0:00.00 |    2:52.07   |           0      |      12906
       2  |  2:52.07 |    4:31.48   |       12907      |      33279
       3  |  7:23.55 |    4:05.52   |       33280      |      51706
       4  | 11:29.32 |    4:07.38   |       51707      |      70269
       5  | 15:36.70 |    3:54.25   |       70270      |      87844
       6  | 19:31.20 |    2:58.10   |       87845      |     101204
       7  | 22:29.30 |    4:33.20   |      101205      |     121699
       8  | 27:02.50 |    4:28.65   |      121700      |     141864
       9  | 31:31.40 |    3:47.45   |      141865      |     158934
      10  | 35:19.10 |    3:42.50   |      158935      |     175634
      11  | 39:01.60 |    4:31.45   |      175635      |     196004
      12  | 43:33.30 |    5:07.30   |      196005      |     219059
      13  | 48:40.60 |    4:00.27   |      219060      |     237086
      14  | 52:41.12 |    4:35.48   |      237087      |     257759
      15  | 57:16.60 |    3:53.62   |      257760      |     275296
      16  | 61:10.47 |    3:34.15   |      275297      |     291361
      17  | 64:44.62 |    3:51.50   |      291362      |     308736
      18  | 68:36.37 |    5:17.30   |      308737      |     332541

Характеристики диапазона извлечения и сообщения об ошибках

Выбранный диапазон

     Имя файла I:\MOI_RAZDACI\VA_Dynamit.Vol.17_1999\VA_Dynamit.Vol.17_1999\Various Artists - Rock Hard - Dynamit, Volume 17.wav

     Пиковый уровень 99.9 %
     Скорость извлечения 8.5 X
     Качество диапазона 99.9 %
     CRC теста A8A64847
     CRC копии A8A64847
     Копирование... OK

Ошибок не произошло

AccurateRip: сводка

Трек  1  : извлечено точно (доверие 8)  [2511693B]  (AR v2)
Трек  2  : извлечено точно (доверие 8)  [484F078A]  (AR v2)
Трек  3  : извлечено точно (доверие 8)  [84D93A1B]  (AR v2)
Трек  4  : извлечено точно (доверие 8)  [60E8D92E]  (AR v2)
Трек  5  : извлечено точно (доверие 8)  [B1EE6C0D]  (AR v2)
Трек  6  : извлечено точно (доверие 8)  [E5E70652]  (AR v2)
Трек  7  : извлечено точно (доверие 8)  [207FE8C5]  (AR v2)
Трек  8  : извлечено точно (доверие 8)  [200C3360]  (AR v2)
Трек  9  : извлечено точно (доверие 8)  [3ABBCF5F]  (AR v2)
Трек 10  : извлечено точно (доверие 8)  [E786C70A]  (AR v2)
Трек 11  : извлечено точно (доверие 8)  [CE52FBF7]  (AR v2)
Трек 12  : извлечено точно (доверие 8)  [10FED72B]  (AR v2)
Трек 13  : извлечено точно (доверие 8)  [F6B981E5]  (AR v2)
Трек 14  : извлечено точно (доверие 8)  [E1D24C49]  (AR v2)
Трек 15  : извлечено точно (доверие 8)  [57E1C44C]  (AR v2)
Трек 16  : извлечено точно (доверие 8)  [FDB6D383]  (AR v2)
Трек 17  : извлечено точно (доверие 7)  [28265E14]  (AR v2)
Трек 18  : извлечено точно (доверие 7)  [B80136AF]  (AR v2)

Все треки извлечены точно

Конец отчёта

==== Контрольная сумма отчёта C0276B5BB7154C56C6BF19BFA5EDB604B88BC9925588F4628FFDA04F071D4007 ====
Код: Выделить всё
REM GENRE "Hard Rock"
REM DATE 1999
REM DISCID FE115112
REM COMMENT "ExactAudioCopy v1.0b3"
CATALOG 1801000111006
PERFORMER "Various Artists"
TITLE "Rock Hard - Dynamit, Volume 17"
FILE "Various Artists - Rock Hard - Dynamit, Volume 17.flac" WAVE
  TRACK 01 AUDIO
    TITLE "Freedumb"
    PERFORMER "Suicidal Tendencies"
    INDEX 01 00:00:00
  TRACK 02 AUDIO
    TITLE "Pound of Cure"
    PERFORMER "Metal Church"
    INDEX 01 02:52:07
  TRACK 03 AUDIO
    TITLE "Nothing Left"
    PERFORMER "Machine Head"
    INDEX 00 07:23:45
    INDEX 01 07:23:55
  TRACK 04 AUDIO
    TITLE "Guardian Angel"
    PERFORMER "Soulmotor"
    INDEX 00 11:29:31
    INDEX 01 11:29:32
  TRACK 05 AUDIO
    TITLE "Frontline"
    PERFORMER "Painflow"
    INDEX 00 15:36:66
    INDEX 01 15:36:70
  TRACK 06 AUDIO
    TITLE "Deserted"
    PERFORMER "Gardenian"
    INDEX 01 19:31:20
  TRACK 07 AUDIO
    TITLE "Feasting on the Blood of the Insane"
    PERFORMER "Six Feet Under"
    INDEX 00 22:29:03
    INDEX 01 22:29:30
  TRACK 08 AUDIO
    TITLE "Over&over&over"
    PERFORMER "7Zuma7"
    INDEX 00 27:01:47
    INDEX 01 27:02:50
  TRACK 09 AUDIO
    TITLE "Erase the Slate"
    PERFORMER "Dokken"
    INDEX 01 31:31:40
  TRACK 10 AUDIO
    TITLE "The Immortal"
    PERFORMER "Arch Enemy"
    INDEX 00 35:19:06
    INDEX 01 35:19:10
  TRACK 11 AUDIO
    TITLE "FreeCard"
    PERFORMER "Dark Tranquillity"
    INDEX 00 39:00:52
    INDEX 01 39:01:60
  TRACK 12 AUDIO
    TITLE "Final Embrace"
    PERFORMER "Primal Fear"
    INDEX 00 43:31:74
    INDEX 01 43:33:30
  TRACK 13 AUDIO
    TITLE "Convicted"
    PERFORMER "Darkane"
    INDEX 01 48:40:60
  TRACK 14 AUDIO
    TITLE "Metalium"
    PERFORMER "Metalium"
    INDEX 01 52:41:12
  TRACK 15 AUDIO
    TITLE "Beware the Heavens"
    PERFORMER "Sinergy"
    INDEX 00 57:15:48
    INDEX 01 57:16:60
  TRACK 16 AUDIO
    TITLE "Browsing"
    PERFORMER "Enola Gay"
    INDEX 01 61:10:47
  TRACK 17 AUDIO
    TITLE "Kiss the Demon"
    PERFORMER "Mercyful Fate"
    INDEX 01 64:44:62
  TRACK 18 AUDIO
    TITLE "No Miracles"
    PERFORMER "The Bronx Casket Co."
    INDEX 01 68:36:37
Код: Выделить всё
-----------------------

DON'T MODIFY THIS FILE

-----------------------

PERFORMER: auCDtect Task Manager, ver. 1.5.1RC6 build 1.5.1.7
Copyright (c) 2008-2010 y-soft. All rights reserved
[url=http://y-soft.org]http://y-soft.org[/url]

ANALYZER: auCDtect: CD records authenticity detector, version 0.8.2
Copyright (c) 2004 Oleg Berngardt. All rights reserved.
Copyright (c) 2004 Alexander Djourik. All rights reserved.

FILE: Various Artists - Rock Hard - Dynamit, Volume 17.flac
  Size: 568455670 Hash: E096893E547278ECD717B47EF71CA4E7 Accuracy: -m0
  Conclusion: CDDA 100%
  Signature: C6E919990C616886A9D3B3822846CE98A66E4C87
Прямые кликабельные ссылки на раздачи.
Direct clickable links to hand.




























Прямые кликабельные ссылки на раздачи.
Direct clickable links to hand.
































Прямые кликабельные ссылки на раздачи.
Direct clickable links to hand.


























 
Не забывайте говорить Спасибо. Не уходите с раздачи!   
Торрент: Зарегистрирован [11 фев 2016, 09:30] Для скачивания .torrent
необходима регистрация
Или скачать с помощью
MediaGet
Статус:
Проверен
 
.torrent скачан: 0 раз
Хэш: f4a1586d4ded352487a57ce077acc64123093be8
Размер: 556.45 МБ (583 474 969 байт)
Стать Автором раздачи
 
Аватара пользователя
Администратор
Администратор
 
Раздал: 56.73 ТБ
Скачал: 79.93 ТБ
Ратио: 0.710
Сообщения: 76582
Зарегистрирован: 07 янв 2011, 16:36


  • Похожие торренты
    Ответы
    Просмотры
    Последнее сообщение

Вернуться в Сборники "Зарубежный Metal" (lossless)

Ресурс не предоставляет электронные версии произведений, а занимается лишь коллекционированием и каталогизацией ссылок, присылаемых и публикуемых на форуме нашими читателями. Если вы являетесь правообладателем какого-либо представленного материала и не желаете чтобы ссылка на него находилась в нашем каталоге, свяжитесь с нами и мы незамедлительно удалим её. Файлы для обмена на трекере предоставлены пользователями сайта, и администрация не несёт ответственности за их содержание. Просьба не заливать файлы, защищенные авторскими правами, а также файлы нелегального содержания!