(Rock, Heavy Metal, Speed Metal...) [CD] VA - Off Road Tracks (Vol. 17,18,19,31,32), (CDx5) - 1999 - 2000, FLAC (image+.cue), lossless

 
 Статистика раздачи 
Размер: 2.15 ГБ   |  Зарегистрирован: 25 фев 2016, 11:46   |   .torrent скачан: 0 раз
Сидеров: 1  [ 0 байт/сек ]     Личеров: 0  [ 0 байт/сек ]  
  

(Rock, Heavy Metal, Speed Metal...) [CD] VA - Off Road Tracks (Vol. 17,18,19,31,32), (CDx5) - 1999 - 2000, FLAC (image+.cue), lossless

Сообщение i926 » 25 фев 2016, 11:46

.
.
Off Road Tracks

Vol. 17,18,19,31,32
.
(CDx5, Compilation, Promo, Series: Off Road Tracks).
.... ....
.
Жанр: Rock, Speed Metal, Black Metal, Goth Rock, Avantgarde, Heavy Metal
Носитель
: CD
Страна-производитель диска (релиза): Germany
Год издания: 1999 - 2000
Издатель (лейбл): Metal Hammer
Номер по каталогу: none
Аудиокодек: FLAC (*.flac)
Тип рипа: image+.cue
Битрейт аудио: lossless
Продолжительность: 04:58:03
Источник (релизер): stas64
Наличие сканов в содержимом раздачи: да - 600 dpi
#77.
Треклист:

01. Dimmu Borgir - The Insight And The Catharsis.
02. Skyclad - A Well Beside The River.
03. Manowar - Metal Daze.
04. Overkill - Black Line.
05. Death SS - Scarlet Woman.
06. Blackmail - Nostra.
07. Unrest - Never Surrender.
08. Pretty Maids - Hell On High Heels.
09. Narnia - Dangerous Game.
10. MSG - Pilot Of Your Soul.
11. Lacuna Coil - Circle.
12. Nocte Obducta - Honig Der Finsternis - Phiala Vini Blasphemiae.
Код: Выделить всё
Exact Audio Copy V1.0 beta 3 from 29. August 2011

Отчёт EAC об извлечении, выполненном 23. февраля 2016, 1:06

Various / Off Road Tracks Vol. 17

Дисковод: LITE-ON CD-RW SOHR-5239V   Adapter: 6  ID: 0

Режим чтения                 : Достоверность
Использование точного потока : Да
Отключение кэша аудио        : Да
Использование указателей C2  : Нет

Коррекция смещения при чтении                     : 6
Способность читать области Lead-in и Lead-out     : Нет
Заполнение пропущенных сэмплов тишиной            : Да
Удаление блоков с тишиной в начале и конце        : Нет
При вычислениях CRC использовались нулевые сэмплы : Да
Интерфейс                                         : Установленный внешний ASPI-интерфейс

Выходной формат          : Пользовательский кодировщик
Выбранный битрейт        : 128 kBit/s
Качество                 : Высокий
Добавление ID3-тега      : Нет
Утилита сжатия           : C:\Program Files\Exact Audio Copy\FLAC\FLAC.EXE
Дополнительные параметры : -V -8 -T "Genre=%genre%" -T "Artist=%artist%" -T "Title=%title%" -T "Album=%albumtitle%" -T "Date=%year%" -T "Tracknumber=%tracknr%" -T "Comment=%comment%" %source%

TOC извлечённого CD

     Трек |   Старт  | Длительность | Начальный сектор | Конечный сектор
    ---------------------------------------------------------------------
       1  |  0:00.00 |    7:18.17   |           0      |      32866
       2  |  7:18.17 |    5:43.30   |       32867      |      58621
       3  | 13:01.47 |    4:30.43   |       58622      |      78914
       4  | 17:32.15 |    4:45.30   |       78915      |     100319
       5  | 22:17.45 |    5:38.35   |      100320      |     125704
       6  | 27:56.05 |    2:50.20   |      125705      |     138474
       7  | 30:46.25 |    4:36.70   |      138475      |     159244
       8  | 35:23.20 |    4:08.47   |      159245      |     177891
       9  | 39:31.67 |    5:12.15   |      177892      |     201306
      10  | 44:44.07 |    4:27.70   |      201307      |     221401
      11  | 49:12.02 |    3:54.58   |      221402      |     239009
      12  | 53:06.60 |   10:21.10   |      239010      |     285594

Характеристики диапазона извлечения и сообщения об ошибках

Выбранный диапазон

     Имя файла I:\MOI_RAZDACI\VA_Off Road Tracks\VA_Off.Road.Tracks_1999_2000\CD_V0L.17\Various - Off Road Tracks Vol. 17.wav

     Пиковый уровень 100.0 %
     Скорость извлечения 4.7 X
     Качество диапазона 100.0 %
     CRC теста 2DDD6196
     CRC копии 2DDD6196
     Копирование... OK

Ошибок не произошло

Конец отчёта

==== Контрольная сумма отчёта B5934819C27D44F3CE337B774170D1807962D459532E0159590FF3FDB30F3AF6 ====
Код: Выделить всё
REM GENRE "Heavy Metal"
REM DATE 1999
REM DISCID B80EDF0C
REM COMMENT "ExactAudioCopy v1.0b3"
CATALOG 0000000000000
PERFORMER "Various"
TITLE "Off Road Tracks Vol. 17"
FILE "Various - Off Road Tracks Vol. 17.flac" WAVE
  TRACK 01 AUDIO
    TITLE "The Insight And The Catharsis"
    PERFORMER "Dimmu Borgir"
    INDEX 01 00:00:00
  TRACK 02 AUDIO
    TITLE "A Well Beside The River"
    PERFORMER "Skyclad"
    INDEX 00 07:17:18
    INDEX 01 07:18:17
  TRACK 03 AUDIO
    TITLE "Metal Daze"
    PERFORMER "Manowar"
    INDEX 00 13:00:52
    INDEX 01 13:01:47
  TRACK 04 AUDIO
    TITLE "Black Line"
    PERFORMER "Overkill"
    INDEX 00 17:31:12
    INDEX 01 17:32:15
  TRACK 05 AUDIO
    TITLE "Scarlet Woman"
    PERFORMER "Death SS"
    INDEX 00 22:16:63
    INDEX 01 22:17:45
  TRACK 06 AUDIO
    TITLE "Nostra"
    PERFORMER "Blackmail"
    INDEX 00 27:55:34
    INDEX 01 27:56:05
  TRACK 07 AUDIO
    TITLE "Never Surrender"
    PERFORMER "Unrest"
    INDEX 00 30:45:36
    INDEX 01 30:46:25
  TRACK 08 AUDIO
    TITLE "Hell On High Heels"
    PERFORMER "Pretty Maids"
    INDEX 00 35:22:07
    INDEX 01 35:23:20
  TRACK 09 AUDIO
    TITLE "Dangerous Game"
    PERFORMER "Narnia"
    INDEX 00 39:31:03
    INDEX 01 39:31:67
  TRACK 10 AUDIO
    TITLE "Pilot Of Your Soul"
    PERFORMER "MSG"
    INDEX 00 44:43:12
    INDEX 01 44:44:07
  TRACK 11 AUDIO
    TITLE "Circle"
    PERFORMER "Lacuna Coil"
    INDEX 00 49:11:13
    INDEX 01 49:12:02
  TRACK 12 AUDIO
    TITLE "Honig Der Finsternis - Phiala Vini Blasphemiae"
    PERFORMER "Nocte Obducta"
    INDEX 00 53:05:40
    INDEX 01 53:06:60
Код: Выделить всё
-----------------------

DON'T MODIFY THIS FILE

-----------------------

PERFORMER: auCDtect Task Manager, ver. 1.5.1RC6 build 1.5.1.7
Copyright (c) 2008-2010 y-soft. All rights reserved
[url=http://y-soft.org]http://y-soft.org[/url]

ANALYZER: auCDtect: CD records authenticity detector, version 0.8.2
Copyright (c) 2004 Oleg Berngardt. All rights reserved.
Copyright (c) 2004 Alexander Djourik. All rights reserved.

FILE: Various - Off Road Tracks Vol. 17.flac
  Size: 490012360 Hash: 020844A20F962575BCAE8D0C7067143E Accuracy: -m0
  Conclusion: CDDA 100%
  Signature: D8D6923BD9500A606F2A7DF316B9AA598BAAEBD2
#77.
.
Треклист:

[color=#50505050]01. Dismail Euphony[/color] - All Little Devils.
02. Motorhead - Ace Of Spades.
03. Ryker's - To Whom It May Concern.
04. Crematory - I Never Die.
05. Lana Lane - Frankenstein Unbound.
06. Chroming Rose - Stay.
07. Amorphis - Divinity.
08. Mob Rules - Secret Signs.
09. Steel Prophet - Strange Encounter.
10. Darkseed - Cold.
.
Код: Выделить всё
Exact Audio Copy V1.0 beta 3 from 29. August 2011

Отчёт EAC об извлечении, выполненном 23. февраля 2016, 10:03

Various / Off Road Tracks Vol. 18

Дисковод: LITE-ON CD-RW SOHR-5239V   Adapter: 6  ID: 0

Режим чтения                 : Достоверность
Использование точного потока : Да
Отключение кэша аудио        : Да
Использование указателей C2  : Нет

Коррекция смещения при чтении                     : 6
Способность читать области Lead-in и Lead-out     : Нет
Заполнение пропущенных сэмплов тишиной            : Да
Удаление блоков с тишиной в начале и конце        : Нет
При вычислениях CRC использовались нулевые сэмплы : Да
Интерфейс                                         : Установленный внешний ASPI-интерфейс

Выходной формат          : Пользовательский кодировщик
Выбранный битрейт        : 128 kBit/s
Качество                 : Высокий
Добавление ID3-тега      : Нет
Утилита сжатия           : C:\Program Files\Exact Audio Copy\FLAC\FLAC.EXE
Дополнительные параметры : -V -8 -T "Genre=%genre%" -T "Artist=%artist%" -T "Title=%title%" -T "Album=%albumtitle%" -T "Date=%year%" -T "Tracknumber=%tracknr%" -T "Comment=%comment%" %source%

TOC извлечённого CD

     Трек |   Старт  | Длительность | Начальный сектор | Конечный сектор
    ---------------------------------------------------------------------
       1  |  0:00.00 |    4:12.58   |           0      |      18957
       2  |  4:12.58 |    4:52.72   |       18958      |      40929
       3  |  9:05.55 |    3:23.63   |       40930      |      56217
       4  | 12:29.43 |    5:52.27   |       56218      |      82644
       5  | 18:21.70 |    5:27.70   |       82645      |     107239
       6  | 23:49.65 |    4:57.00   |      107240      |     129514
       7  | 28:46.65 |    4:57.73   |      129515      |     151862
       8  | 33:44.63 |    3:36.67   |      151863      |     168129
       9  | 37:21.55 |    4:43.15   |      168130      |     189369
      10  | 42:04.70 |    4:00.50   |      189370      |     207419

Характеристики диапазона извлечения и сообщения об ошибках

Выбранный диапазон

     Имя файла I:\MOI_RAZDACI\VA_Off Road Tracks\VA_Off.Road.Tracks_1999_2000\CD_V0L.18\Various - Off Road Tracks Vol. 18.wav

     Пиковый уровень 100.0 %
     Скорость извлечения 4.2 X
     Качество диапазона 100.0 %
     CRC теста 06DB4C6E
     CRC копии 06DB4C6E
     Копирование... OK

Ошибок не произошло

Конец отчёта

==== Контрольная сумма отчёта 5060B841D0BFF6E236342E05D61C325694337A4DC8E9543DD8DC514F418EC242 ====
Код: Выделить всё
REM GENRE "Heavy Metal"
REM DATE 1999
REM DISCID 6E0ACD0A
REM COMMENT "ExactAudioCopy v1.0b3"
CATALOG 0000000000000
PERFORMER "Various"
TITLE "Off Road Tracks Vol. 18"
FILE "Various - Off Road Tracks Vol. 18.flac" WAVE
  TRACK 01 AUDIO
    TITLE "All Little Devils"
    PERFORMER "Dismail Euphony"
    INDEX 01 00:00:00
  TRACK 02 AUDIO
    TITLE "Ace Of Spades"
    PERFORMER "Motorhead"
    INDEX 00 04:11:28
    INDEX 01 04:12:58
  TRACK 03 AUDIO
    TITLE "To Whom It May Concern"
    PERFORMER "Ryker's"
    INDEX 00 09:04:02
    INDEX 01 09:05:55
  TRACK 04 AUDIO
    TITLE "I Never Die"
    PERFORMER "Crematory"
    INDEX 00 12:28:07
    INDEX 01 12:29:43
  TRACK 05 AUDIO
    TITLE "Frankenstein Unbound"
    PERFORMER "Lana Lane"
    INDEX 00 18:20:09
    INDEX 01 18:21:70
  TRACK 06 AUDIO
    TITLE "Stay"
    PERFORMER "Chroming Rose"
    INDEX 00 23:48:39
    INDEX 01 23:49:65
  TRACK 07 AUDIO
    TITLE "Divinity"
    PERFORMER "Amorphis"
    INDEX 00 28:45:43
    INDEX 01 28:46:65
  TRACK 08 AUDIO
    TITLE "Secret Signs"
    PERFORMER "Mob Rules"
    INDEX 00 33:43:51
    INDEX 01 33:44:63
  TRACK 09 AUDIO
    TITLE "Strange Encounter"
    PERFORMER "Steel Prophet"
    INDEX 00 37:20:27
    INDEX 01 37:21:55
  TRACK 10 AUDIO
    TITLE "Cold"
    PERFORMER "Darkseed"
    INDEX 00 42:03:09
    INDEX 01 42:04:70
Код: Выделить всё
-----------------------

DON'T MODIFY THIS FILE

-----------------------

PERFORMER: auCDtect Task Manager, ver. 1.5.1RC6 build 1.5.1.7
Copyright (c) 2008-2010 y-soft. All rights reserved
[url=http://y-soft.org]http://y-soft.org[/url]

ANALYZER: auCDtect: CD records authenticity detector, version 0.8.2
Copyright (c) 2004 Oleg Berngardt. All rights reserved.
Copyright (c) 2004 Alexander Djourik. All rights reserved.

FILE: Various - Off Road Tracks Vol. 18.flac
  Size: 348999329 Hash: 24B77AB56688F3B78BB38077B021B4FE Accuracy: -m0
  Conclusion: CDDA 100%
  Signature: AED329D0962B836F681ACAE210B8945DBF93C998
#77.
Треклист:

01. Blind Passengers - Get On.
02. Stahlhammer - Feind hort mit.
03. Seven Witches - Camelot.
04. Glenn Hughes - You Kill Me.
05. Century - Lost.
06. Angel Dust - Bleed.
07. Taetre - Poisoned (Hearts Black Soil).

08. Hollow - Father.
09. Monstrosity - Destroying Divinity.
10. Powergod - No Brain No Pain.
11. Majestic - Golden Sea.
12. Godgory - Resurrection.
Код: Выделить всё
Exact Audio Copy V1.0 beta 3 from 29. August 2011

Отчёт EAC об извлечении, выполненном 23. февраля 2016, 10:25

Various / Off Road Tracks Vol. 019

Дисковод: LITE-ON CD-RW SOHR-5239V   Adapter: 6  ID: 0

Режим чтения                 : Достоверность
Использование точного потока : Да
Отключение кэша аудио        : Да
Использование указателей C2  : Нет

Коррекция смещения при чтении                     : 6
Способность читать области Lead-in и Lead-out     : Нет
Заполнение пропущенных сэмплов тишиной            : Да
Удаление блоков с тишиной в начале и конце        : Нет
При вычислениях CRC использовались нулевые сэмплы : Да
Интерфейс                                         : Установленный внешний ASPI-интерфейс

Выходной формат          : Пользовательский кодировщик
Выбранный битрейт        : 128 kBit/s
Качество                 : Высокий
Добавление ID3-тега      : Нет
Утилита сжатия           : C:\Program Files\Exact Audio Copy\FLAC\FLAC.EXE
Дополнительные параметры : -V -8 -T "Genre=%genre%" -T "Artist=%artist%" -T "Title=%title%" -T "Album=%albumtitle%" -T "Date=%year%" -T "Tracknumber=%tracknr%" -T "Comment=%comment%" %source%

TOC извлечённого CD

     Трек |   Старт  | Длительность | Начальный сектор | Конечный сектор
    ---------------------------------------------------------------------
       1  |  0:00.00 |    3:33.02   |           0      |      15976
       2  |  3:33.02 |    5:44.13   |       15977      |      41789
       3  |  9:17.15 |    4:01.55   |       41790      |      59919
       4  | 13:18.70 |    3:33.50   |       59920      |      75944
       5  | 16:52.45 |    4:49.63   |       75945      |      97682
       6  | 21:42.33 |    4:40.55   |       97683      |     118737
       7  | 26:23.13 |    5:23.05   |      118738      |     142967
       8  | 31:46.18 |    4:23.22   |      142968      |     162714
       9  | 36:09.40 |    3:29.25   |      162715      |     178414
      10  | 39:38.65 |    4:31.05   |      178415      |     198744
      11  | 44:09.70 |    5:40.73   |      198745      |     224317
      12  | 49:50.68 |    7:05.17   |      224318      |     256209

Характеристики диапазона извлечения и сообщения об ошибках

Выбранный диапазон

     Имя файла I:\MOI_RAZDACI\VA_Off Road Tracks\VA_Off.Road.Tracks_1999_2000\CD_V0L.19\Various - Off Road Tracks Vol. 019.wav

     Пиковый уровень 100.0 %
     Скорость извлечения 8.6 X
     Качество диапазона 99.9 %
     CRC теста 9FB05BA8
     CRC копии 9FB05BA8
     Копирование... OK

Ошибок не произошло

Конец отчёта

==== Контрольная сумма отчёта C28A26B04E000B0ED970DD76C19C86ECAFDCB7BEB0D4C5C0F9F8FB9D3757C1EE ====
Код: Выделить всё
REM GENRE "Heavy Metal"
REM DATE 1999
REM DISCID 940D580C
REM COMMENT "ExactAudioCopy v1.0b3"
CATALOG 0000000000000
PERFORMER "Various"
TITLE "Off Road Tracks Vol. 019"
FILE "Various - Off Road Tracks Vol. 019.flac" WAVE
  TRACK 01 AUDIO
    TITLE "Get On"
    PERFORMER "Blind Passengers"
    INDEX 01 00:00:00
  TRACK 02 AUDIO
    TITLE "Feind hort mit"
    PERFORMER "Stahlhammer"
    INDEX 00 03:31:49
    INDEX 01 03:33:02
  TRACK 03 AUDIO
    TITLE "Camelot"
    PERFORMER "Seven Witches"
    INDEX 00 09:15:62
    INDEX 01 09:17:15
  TRACK 04 AUDIO
    TITLE "You Kill Me"
    PERFORMER "Glenn Hughes"
    INDEX 00 13:17:23
    INDEX 01 13:18:70
  TRACK 05 AUDIO
    TITLE "Lost"
    PERFORMER "Century"
    INDEX 00 16:51:15
    INDEX 01 16:52:45
  TRACK 06 AUDIO
    TITLE "Bleed"
    PERFORMER "Angel Dust"
    INDEX 00 21:40:40
    INDEX 01 21:42:33
  TRACK 07 AUDIO
    TITLE "Poisoned (Hearts Black Soil)"
    PERFORMER "Taetre"
    INDEX 00 26:22:01
    INDEX 01 26:23:13
  TRACK 08 AUDIO
    TITLE "Father"
    PERFORMER "Hollow"
    INDEX 00 31:44:10
    INDEX 01 31:46:18
  TRACK 09 AUDIO
    TITLE "Destroying Divinity"
    PERFORMER "Monstrosity"
    INDEX 00 36:08:16
    INDEX 01 36:09:40
  TRACK 10 AUDIO
    TITLE "No Brain No Pain"
    PERFORMER "Powergod"
    INDEX 00 39:37:12
    INDEX 01 39:38:65
  TRACK 11 AUDIO
    TITLE "Golden Sea"
    PERFORMER "Majestic"
    INDEX 00 44:08:46
    INDEX 01 44:09:70
  TRACK 12 AUDIO
    TITLE "Resurrection"
    PERFORMER "Godgory"
    INDEX 00 49:49:28
    INDEX 01 49:50:68
Код: Выделить всё
-----------------------

DON'T MODIFY THIS FILE

-----------------------

PERFORMER: auCDtect Task Manager, ver. 1.5.1RC6 build 1.5.1.7
Copyright (c) 2008-2010 y-soft. All rights reserved
[url=http://y-soft.org]http://y-soft.org[/url]

ANALYZER: auCDtect: CD records authenticity detector, version 0.8.2
Copyright (c) 2004 Oleg Berngardt. All rights reserved.
Copyright (c) 2004 Alexander Djourik. All rights reserved.

FILE: Various - Off Road Tracks Vol. 019.flac
  Size: 438191506 Hash: D50BD94ADD920A605C47CCC1E4D15403 Accuracy: -m0
  Conclusion: CDDA 100%
  Signature: 7A6E53705B953694DDAAFCAE360D0F4CF0D4BA57
#77
Треклист:

01. Destruction - The Butcher Strikes Back.
02. Borknagar - The Presence Is Ominous.
03. Axel Rudi Pell - Tear Down The Walls.
04. Totenmond - Die Membranen.
05. Kittie - Charlotte.
06. One Minute Silence - Rise And Shine.
07. Ivory Tower - Beyond The Stars (Edit Version)
.
08. Asgard - Ch. IV Drachenfels.
09. Katakylsm - Manifestation.
10. Lane Lane - Asherah.
11. Raise Hell - Dance With The Devil.
12. Sturm - Sturm.
13. Earthtone 9 - I Negual Eye.
Код: Выделить всё
Exact Audio Copy V1.0 beta 3 from 29. August 2011

Отчёт EAC об извлечении, выполненном 23. февраля 2016, 10:46

Various / Off Road Tracks Vol. 031

Дисковод: LITE-ON CD-RW SOHR-5239V   Adapter: 6  ID: 0

Режим чтения                 : Достоверность
Использование точного потока : Да
Отключение кэша аудио        : Да
Использование указателей C2  : Нет

Коррекция смещения при чтении                     : 6
Способность читать области Lead-in и Lead-out     : Нет
Заполнение пропущенных сэмплов тишиной            : Да
Удаление блоков с тишиной в начале и конце        : Нет
При вычислениях CRC использовались нулевые сэмплы : Да
Интерфейс                                         : Установленный внешний ASPI-интерфейс

Выходной формат          : Пользовательский кодировщик
Выбранный битрейт        : 128 kBit/s
Качество                 : Высокий
Добавление ID3-тега      : Нет
Утилита сжатия           : C:\Program Files\Exact Audio Copy\FLAC\FLAC.EXE
Дополнительные параметры : -V -8 -T "Genre=%genre%" -T "Artist=%artist%" -T "Title=%title%" -T "Album=%albumtitle%" -T "Date=%year%" -T "Tracknumber=%tracknr%" -T "Comment=%comment%" %source%

TOC извлечённого CD

     Трек |   Старт  | Длительность | Начальный сектор | Конечный сектор
    ---------------------------------------------------------------------
       1  |  0:00.00 |    3:08.35   |           0      |      14134
       2  |  3:08.35 |    4:54.65   |       14135      |      36249
       3  |  8:03.25 |    5:39.58   |       36250      |      61732
       4  | 13:43.08 |    6:22.42   |       61733      |      90424
       5  | 20:05.50 |    3:57.13   |       90425      |     108212
       6  | 24:02.63 |    3:15.37   |      108213      |     122874
       7  | 27:18.25 |    4:59.53   |      122875      |     145352
       8  | 32:18.03 |    4:08.17   |      145353      |     163969
       9  | 36:26.20 |    3:57.28   |      163970      |     181772
      10  | 40:23.48 |    6:52.02   |      181773      |     212674
      11  | 47:15.50 |    4:56.22   |      212675      |     234896
      12  | 52:11.72 |   10:08.23   |      234897      |     280519
      13  | 62:20.20 |    4:12.13   |      280520      |     299432

Характеристики диапазона извлечения и сообщения об ошибках

Выбранный диапазон

     Имя файла I:\MOI_RAZDACI\VA_Off Road Tracks\VA_Off.Road.Tracks_1999_2000\CD_V0L.31\Various - Off Road Tracks Vol. 031.wav

     Пиковый уровень 100.0 %
     Скорость извлечения 9.9 X
     Качество диапазона 100.0 %
     CRC теста E9A5D48E
     CRC копии E9A5D48E
     Копирование... OK

Ошибок не произошло

Конец отчёта

==== Контрольная сумма отчёта 503F18F40952CAF8DED6572C62C9BDA9FF523FABC0E6B657791BA6AE3D13E686 ====
Код: Выделить всё
REM GENRE "Heavy Metal"
REM DATE 2000
REM DISCID AA0F980D
REM COMMENT "ExactAudioCopy v1.0b3"
CATALOG 0000000000000
PERFORMER "Various"
TITLE "Off Road Tracks Vol. 031"
FILE "Various - Off Road Tracks Vol. 031.flac" WAVE
  TRACK 01 AUDIO
    TITLE "The Butcher Strikes Back"
    PERFORMER "Destruction"
    INDEX 01 00:00:00
  TRACK 02 AUDIO
    TITLE "The Presence Is Ominous"
    PERFORMER "Borknagar"
    INDEX 00 03:08:29
    INDEX 01 03:08:35
  TRACK 03 AUDIO
    TITLE "Tear Down The Walls"
    PERFORMER "Axel Rudi Pell"
    INDEX 00 08:03:11
    INDEX 01 08:03:25
  TRACK 04 AUDIO
    TITLE "Die Membranen"
    PERFORMER "Totenmond"
    INDEX 00 13:43:07
    INDEX 01 13:43:08
  TRACK 05 AUDIO
    TITLE "Charlotte"
    PERFORMER "Kittie"
    INDEX 00 20:05:28
    INDEX 01 20:05:50
  TRACK 06 AUDIO
    TITLE "Rise And Shine"
    PERFORMER "One Minute Silence"
    INDEX 00 24:02:42
    INDEX 01 24:02:63
  TRACK 07 AUDIO
    TITLE "Beyond The Stars (Edit Version)"
    PERFORMER "Ivory Tower"
    INDEX 00 27:18:07
    INDEX 01 27:18:25
  TRACK 08 AUDIO
    TITLE "Ch. IV Drachenfels"
    PERFORMER "Asgard"
    INDEX 00 32:17:61
    INDEX 01 32:18:03
  TRACK 09 AUDIO
    TITLE "Manifestation"
    PERFORMER "Katakylsm"
    INDEX 00 36:26:14
    INDEX 01 36:26:20
  TRACK 10 AUDIO
    TITLE "Asherah"
    PERFORMER "Lane Lane"
    INDEX 00 40:23:42
    INDEX 01 40:23:48
  TRACK 11 AUDIO
    TITLE "Dance With The Devil"
    PERFORMER "Raise Hell"
    INDEX 00 47:15:44
    INDEX 01 47:15:50
  TRACK 12 AUDIO
    TITLE "Sturm"
    PERFORMER "Sturm"
    INDEX 00 52:11:59
    INDEX 01 52:11:72
  TRACK 13 AUDIO
    TITLE "I Negual Eye"
    PERFORMER "Earthtone 9"
    INDEX 01 62:20:20
Код: Выделить всё
-----------------------

DON'T MODIFY THIS FILE

-----------------------

PERFORMER: auCDtect Task Manager, ver. 1.5.1RC6 build 1.5.1.7
Copyright (c) 2008-2010 y-soft. All rights reserved
[url=http://y-soft.org]http://y-soft.org[/url]

ANALYZER: auCDtect: CD records authenticity detector, version 0.8.2
Copyright (c) 2004 Oleg Berngardt. All rights reserved.
Copyright (c) 2004 Alexander Djourik. All rights reserved.

FILE: Various - Off Road Tracks Vol. 031.flac
  Size: 518925934 Hash: FC30EF97DCDF20C60D50520E3593BB5D Accuracy: -m0
  Conclusion: CDDA 100%
  Signature: CE36580FF8B6ABB9CD8BFF90222C1A020C89AE85
#77.
Треклист:

01. Deris - Let Your Love Fly Free.
02. Alice Cooper - It's The Little Things.
03. Ayreon - My House On Mars.
04. Ayreon - Into The Black Hole.
05. Hair Of The Dog - Rise.
06. Charon - Sin.
07. After Forever - Follow In The Cry.
08. Heavenly - Time Machine.
09. The Sins Of Thy Beloved - The Flame Of Wrath.
10. Opprobrium - Digitrap.
11. Re-Vision - Whore Venus.
12. At Vance - Heart Of Steel.
Код: Выделить всё
Exact Audio Copy V1.0 beta 3 from 29. August 2011

Отчёт EAC об извлечении, выполненном 23. февраля 2016, 11:05

Various / Off Road Tracks Vol. 032

Дисковод: LITE-ON CD-RW SOHR-5239V   Adapter: 6  ID: 0

Режим чтения                 : Достоверность
Использование точного потока : Да
Отключение кэша аудио        : Да
Использование указателей C2  : Нет

Коррекция смещения при чтении                     : 6
Способность читать области Lead-in и Lead-out     : Нет
Заполнение пропущенных сэмплов тишиной            : Да
Удаление блоков с тишиной в начале и конце        : Нет
При вычислениях CRC использовались нулевые сэмплы : Да
Интерфейс                                         : Установленный внешний ASPI-интерфейс

Выходной формат          : Пользовательский кодировщик
Выбранный битрейт        : 128 kBit/s
Качество                 : Высокий
Добавление ID3-тега      : Нет
Утилита сжатия           : C:\Program Files\Exact Audio Copy\FLAC\FLAC.EXE
Дополнительные параметры : -V -8 -T "Genre=%genre%" -T "Artist=%artist%" -T "Title=%title%" -T "Album=%albumtitle%" -T "Date=%year%" -T "Tracknumber=%tracknr%" -T "Comment=%comment%" %source%

TOC извлечённого CD

     Трек |   Старт  | Длительность | Начальный сектор | Конечный сектор
    ---------------------------------------------------------------------
       1  |  0:00.00 |    4:23.69   |           0      |      19793
       2  |  4:23.69 |    4:15.56   |       19794      |      38974
       3  |  8:39.50 |    7:40.12   |       38975      |      73486
       4  | 16:19.62 |    8:14.60   |       73487      |     110596
       5  | 24:34.47 |    2:49.48   |      110597      |     123319
       6  | 27:24.20 |    3:41.17   |      123320      |     139911
       7  | 31:05.37 |    4:06.63   |      139912      |     158424
       8  | 35:12.25 |    7:07.42   |      158425      |     190491
       9  | 42:19.67 |    9:50.33   |      190492      |     234774
      10  | 52:10.25 |    4:27.60   |      234775      |     254859
      11  | 56:38.10 |    5:03.72   |      254860      |     277656
      12  | 61:42.07 |    3:22.05   |      277657      |     292811

Характеристики диапазона извлечения и сообщения об ошибках

Выбранный диапазон

     Имя файла I:\MOI_RAZDACI\VA_Off Road Tracks\VA_Off.Road.Tracks_1999_2000\CD_V0L.32\Various - Off Road Tracks Vol. 032.wav

     Пиковый уровень 100.0 %
     Скорость извлечения 9.9 X
     Качество диапазона 100.0 %
     CRC теста ED70E323
     CRC копии ED70E323
     Копирование... OK

Ошибок не произошло

Конец отчёта

==== Контрольная сумма отчёта 4EEAE34104F5E28D08EF88C341C63270449A070AC1DA3A154D0EAF57B74D87A5 ====
Код: Выделить всё
REM GENRE "Heavy Metal"
REM DATE 2000
REM DISCID 940F400C
REM COMMENT "ExactAudioCopy v1.0b3"
CATALOG 0000000000000
PERFORMER "Various"
TITLE "Off Road Tracks Vol. 032"
FILE "Various - Off Road Tracks Vol. 032.flac" WAVE
  TRACK 01 AUDIO
    TITLE "Let Your Love Fly Free"
    PERFORMER "Deris"
    INDEX 01 00:00:00
  TRACK 02 AUDIO
    TITLE "It's The Little Things"
    PERFORMER "Alice Cooper"
    INDEX 00 04:21:71
    INDEX 01 04:23:69
  TRACK 03 AUDIO
    TITLE "My House On Mars"
    PERFORMER "Ayreon"
    INDEX 00 08:37:47
    INDEX 01 08:39:50
  TRACK 04 AUDIO
    TITLE "Into The Black Hole"
    PERFORMER "Ayreon"
    INDEX 00 16:17:43
    INDEX 01 16:19:62
  TRACK 05 AUDIO
    TITLE "Rise"
    PERFORMER "Hair Of The Dog"
    INDEX 00 24:32:28
    INDEX 01 24:34:47
  TRACK 06 AUDIO
    TITLE "Sin"
    PERFORMER "Charon"
    INDEX 00 27:22:15
    INDEX 01 27:24:20
  TRACK 07 AUDIO
    TITLE "Follow In The Cry"
    PERFORMER "After Forever"
    INDEX 00 31:03:16
    INDEX 01 31:05:37
  TRACK 08 AUDIO
    TITLE "Time Machine"
    PERFORMER "Heavenly"
    INDEX 00 35:10:20
    INDEX 01 35:12:25
  TRACK 09 AUDIO
    TITLE "The Flame Of Wrath"
    PERFORMER "The Sins Of Thy Beloved"
    INDEX 00 42:17:73
    INDEX 01 42:19:67
  TRACK 10 AUDIO
    TITLE "Digitrap"
    PERFORMER "Opprobrium"
    INDEX 00 52:08:13
    INDEX 01 52:10:25
  TRACK 11 AUDIO
    TITLE "Whore Venus"
    PERFORMER "Re-Vision"
    INDEX 00 56:36:00
    INDEX 01 56:38:10
  TRACK 12 AUDIO
    TITLE "Heart Of Steel"
    PERFORMER "At Vance"
    INDEX 00 61:39:65
    INDEX 01 61:42:07
Код: Выделить всё
-----------------------

DON'T MODIFY THIS FILE

-----------------------

PERFORMER: auCDtect Task Manager, ver. 1.5.1RC6 build 1.5.1.7
Copyright (c) 2008-2010 y-soft. All rights reserved
[url=http://y-soft.org]http://y-soft.org[/url]

ANALYZER: auCDtect: CD records authenticity detector, version 0.8.2
Copyright (c) 2004 Oleg Berngardt. All rights reserved.
Copyright (c) 2004 Alexander Djourik. All rights reserved.

FILE: Various - Off Road Tracks Vol. 032.flac
  Size: 467629344 Hash: 787C8A36AC90B5F764D9C4BC7089852B Accuracy: -m0
  Conclusion: CDDA 100%
  Signature: 947175D7FA8287C8A25845ED764A0738F0FBCD4E
 
Не забывайте говорить Спасибо. Не уходите с раздачи!   
Торрент: Зарегистрирован [25 фев 2016, 11:46] Для скачивания .torrent
необходима регистрация
Или скачать с помощью
MediaGet
Статус:
Проверен
 
.torrent скачан: 0 раз
Хэш: a9bf00c83ce3b6808e23a7076e792979ec329256
Размер: 2.15 ГБ (2 310 481 877 байт)
Стать Автором раздачи
 
Аватара пользователя
Главный редактор
Главный редактор
 
Раздал: 15.43 ТБ
Скачал: 13.78 ТБ
Ратио: 1.120
Сообщения: 65344
Зарегистрирован: 01 мар 2011, 23:07


  • Похожие торренты
    Ответы
    Просмотры
    Последнее сообщение

Вернуться в Сборники "Зарубежный Metal" (lossless)

Ресурс не предоставляет электронные версии произведений, а занимается лишь коллекционированием и каталогизацией ссылок, присылаемых и публикуемых на форуме нашими читателями. Если вы являетесь правообладателем какого-либо представленного материала и не желаете чтобы ссылка на него находилась в нашем каталоге, свяжитесь с нами и мы незамедлительно удалим её. Файлы для обмена на трекере предоставлены пользователями сайта, и администрация не несёт ответственности за их содержание. Просьба не заливать файлы, защищенные авторскими правами, а также файлы нелегального содержания!