(Heavy Metal) [CD] VA - Maiden en Live Intégral - 1998, FLAC (image+.cue), lossless

 
 Статистика раздачи 
Размер: 380.01 МБ   |  Зарегистрирован: 02 апр 2016, 16:22   |   .torrent скачан: 0 раз
Сидеров: 1  [ 0 байт/сек ]     Личеров: 0  [ 0 байт/сек ]  
  

(Heavy Metal) [CD] VA - Maiden en Live Intégral - 1998, FLAC (image+.cue), lossless

Сообщение Master Chief » 02 апр 2016, 16:22

Maiden en Live Intégral

Жанр: Heavy Metal
Носитель: CD
Год издания: 1998
Издатель (лейбл): Hard N' Heavy - Editions Freeway
Номер по каталогу: HNHHS002
Аудиокодек: FLAC (*.flac)
Тип рипа: image+.cue
Битрейт аудио: lossless
Продолжительность: 52:28
Источник (релизер): BadMotherFucker ( спасибо )
Наличие сканов в содержимом раздачи: да
Треклист:
01 Iron Maiden - Man on the Edge (Live) 4:12
02 Iron Maiden - The Evil That Men Do (Live) 4:06
03 Iron Maiden - Afraid to Shoot Strangers (Live) 6:41
04 Iron Maiden - Blood on the World'S Hands (Live) 5:54
05 Iron Maiden - The Aftermath (Live) 6:43
06 Anthrax - Remember Tomorrow 5:06
07 Artsonic - The Number of the Beast 4:25
08 Sentenced - The Trooper 3:17
09 Therion - Chidren of the Damned 4:30
10 Solitude Aeturnus - Hallowed Be Thy Name 7:35
Код: Выделить всё
Exact Audio Copy V1.1 from 23. June 2015

EAC extraction logfile from 31. March 2016, 19:03

Various / Maiden en Live Intégral

Used drive  : SONY    CD-RW  CRX210E1   Adapter: 1  ID: 1

Read mode               : Secure
Utilize accurate stream : Yes
Defeat audio cache      : Yes
Make use of C2 pointers : No

Read offset correction                      : 6
Overread into Lead-In and Lead-Out          : No
Fill up missing offset samples with silence : Yes
Delete leading and trailing silent blocks   : No
Null samples used in CRC calculations       : Yes
Used interface                              : Native Win32 interface for Win NT & 2000

Used output format              : User Defined Encoder
Selected bitrate                : 1024 kBit/s
Quality                         : High
Add ID3 tag                     : No
Command line compressor         : C:\Program Files\FLAC\flac.exe
Additional command line options : -6 -V %source%

TOC of the extracted CD

     Track |   Start  |  Length  | Start sector | End sector
    ---------------------------------------------------------
        1  |  0:00.00 |  4:12.02 |         0    |    18901
        2  |  4:12.02 |  4:06.18 |     18902    |    37369
        3  |  8:18.20 |  6:41.37 |     37370    |    67481
        4  | 14:59.57 |  5:53.39 |     67482    |    93995
        5  | 20:53.21 |  6:43.10 |     93996    |   124230
        6  | 27:36.31 |  5:06.06 |    124231    |   147186
        7  | 32:42.37 |  4:24.63 |    147187    |   167049
        8  | 37:07.25 |  3:16.61 |    167050    |   181810
        9  | 40:24.11 |  4:29.56 |    181811    |   202041
       10  | 44:53.67 |  7:35.03 |    202042    |   236169

Range status and errors

Selected range

     Filename C:\A Upload\VV.AA. [1998] [CD] Maiden en Live Intégral [EAC-FLAC] by BadMofo [MeTaLMaDNeSS.TeaM]\Various - Maiden en Live Intégral.wav

     Peak level 98.9 %
     Extraction speed 4.3 X
     Range quality 99.9 %
     Copy CRC 47D373CE
     Copy OK

No errors occurred

AccurateRip summary

Track  1  not present in database
Track  2  not present in database
Track  3  not present in database
Track  4  not present in database
Track  5  not present in database
Track  6  not present in database
Track  7  not present in database
Track  8  not present in database
Track  9  not present in database
Track 10  not present in database

None of the tracks are present in the AccurateRip database

End of status report

---- CUETools DB Plugin V2.1.6

[CTDB TOCID: p3kzvNTniQUQU49UPukbmG9xXQ0-] disk not present in database
Submit result: p3kzvNTniQUQU49UPukbmG9xXQ0- has been uploaded

==== Log checksum E204D6BC03FE81CB9EC717F4449E7DDFE5C97064DBB27AD178F451BDAB7AFB8A ====
Код: Выделить всё
REM GENRE Heavy Metal
REM DATE 1998
REM DISCID 840C4C0A
REM COMMENT ExactAudioCopy v1.1
PERFORMER "Various"
TITLE "Maiden en Live Integral"
FILE "Various - Maiden en Live Integral.flac" WAVE
  TRACK 01 AUDIO
    TITLE "Man on the Edge (Live)"
    PERFORMER "Iron Maiden"
    INDEX 01 00:00:00
  TRACK 02 AUDIO
    TITLE "The Evil That Men Do (Live)"
    PERFORMER "Iron Maiden"
    INDEX 01 04:12:02
  TRACK 03 AUDIO
    TITLE "Afraid to Shoot Strangers (Live)"
    PERFORMER "Iron Maiden"
    INDEX 01 08:18:20
  TRACK 04 AUDIO
    TITLE "Blood on the World's Hands (Live)"
    PERFORMER "Iron Maiden"
    INDEX 01 14:59:57
  TRACK 05 AUDIO
    TITLE "The Aftermath (Live)"
    PERFORMER "Iron Maiden"
    INDEX 01 20:53:21
  TRACK 06 AUDIO
    TITLE "Remember Tomorrow"
    PERFORMER "Anthrax"
    INDEX 01 27:36:31
  TRACK 07 AUDIO
    TITLE "The Number of the Beast"
    PERFORMER "Artsonic"
    INDEX 01 32:42:37
  TRACK 08 AUDIO
    TITLE "The Trooper"
    PERFORMER "Sentenced"
    INDEX 01 37:07:25
  TRACK 09 AUDIO
    TITLE "Children of the Damned"
    PERFORMER "Therion"
    INDEX 01 40:24:11
  TRACK 10 AUDIO
    TITLE "Hallowed Be Thy Name"
    PERFORMER "Solitude Aeturnus"
    INDEX 01 44:53:67
Код: Выделить всё
[CUETools log; Date: 31/03/2016 19:11:13; Version: 2.1.5]
[CTDB TOCID: p3kzvNTniQUQU49UPukbmG9xXQ0-] found.
Track | CTDB Status
  1   | (1/1) Accurately ripped
  2   | (1/1) Accurately ripped
  3   | (1/1) Accurately ripped
  4   | (1/1) Accurately ripped
  5   | (1/1) Accurately ripped
  6   | (1/1) Accurately ripped
  7   | (1/1) Accurately ripped
  8   | (1/1) Accurately ripped
  9   | (1/1) Accurately ripped
 10   | (1/1) Accurately ripped
[AccurateRip ID: 00137951-009c807b-840c4c0a] disk not present in database.

Track Peak [ CRC32  ] [W/O NULL] [  LOG   ]
 --   98,9 [47D373CE] [297A9FF0]   CRC32
 01   97,2 [908B9565] [E857B60A]
 02   98,7 [6029ED07] [0873EB8B]
 03   98,9 [3FE43D5C] [88620609]
 04   97,8 [3704FA06] [CC62EFE6]
 05   97,8 [615FFE4D] [95E11AD7]
 06   98,9 [D936E546] [A8F65669]
 07   98,9 [71FCC7C8] [A4BAAD70]
 08   98,9 [131C55B0] [E035DA00]
 09   98,9 [15F3EE74] [9F2245A3]
 10   98,9 [4036C5B0] [23BC0A7C]
01 Iron Maiden - Man on the Edge (Live)
taken from "Futureal" MCD
02 Iron Maiden - The Evil That Men Do (Live)
taken from "Futureal" MCD
03 Iron Maiden - Afraid to Shoot Strangers (Live)
taken from "Best of the Beast"
04 Iron Maiden - Blood on the World'S Hands (Live)
taken from "The Angel and the Gambler" MCD
05 Iron Maiden - The Aftermath (Live)
taken from "The Angel and the Gambler" MCD
06 Anthrax - Remember Tomorrow
taken from "Nothing" MCD
07 Artsonic - The Number of the Beast
exclusive cover to this release
08 Sentenced - The Trooper
taken from "The Trooper" MCD
09 Therion - Chidren of the Damned
taken from "Made in Tribute"
10 Solitude Aeturnus - Hallowed Be Thy Name
taken from "A Call to Irons"

Как качать и Как раздавать · Правила, инструкции, FAQ-и

Торрент: Зарегистрирован [ 02-Апр-16 12:29 ] · Скачан: 1 раз



Скачать .torrent15 KB
Тип: обычная
Статус: *
Размер: 380 MB · 
 
Сравнение с раздачей:

эта раздачаразмерсравниваемая раздачаСвернуть поддиректорииРазвернутьПереключить
Свернуть/разв. окно[/spoiler]
загружается...[/spoiler]

[/spoiler]


Человеку нельзя доказать то , чего он не хочет слышать, не понимает или, по каким-то причинам , не доволен релизером.[/spoiler]

  
 
»  » » 
[/spoiler]

·····Блог·Торрентопедия·Кому задать вопрос

······


 ·  ·  ·  · 
Loading...
Error
[/spoiler]

  • Показывать по клику
  • Показывать по наведению

[/spoiler]
 
Не забывайте говорить Спасибо. Не уходите с раздачи!   
Торрент: Зарегистрирован [02 апр 2016, 16:22] Для скачивания .torrent
необходима регистрация
Или скачать с помощью
MediaGet
Статус:
Проверен
 
.torrent скачан: 0 раз
Хэш: ceafcdd5ce11958d208a2ef1e8005cb754ddcf15
Размер: 380.01 МБ (398 466 589 байт)
Стать Автором раздачи
 
Аватара пользователя
Администратор
Администратор
 
Раздал: 56.73 ТБ
Скачал: 79.93 ТБ
Ратио: 0.710
Сообщения: 76582
Зарегистрирован: 07 янв 2011, 16:36


  • Похожие торренты
    Ответы
    Просмотры
    Последнее сообщение

Вернуться в Сборники "Зарубежный Metal" (lossless)

Ресурс не предоставляет электронные версии произведений, а занимается лишь коллекционированием и каталогизацией ссылок, присылаемых и публикуемых на форуме нашими читателями. Если вы являетесь правообладателем какого-либо представленного материала и не желаете чтобы ссылка на него находилась в нашем каталоге, свяжитесь с нами и мы незамедлительно удалим её. Файлы для обмена на трекере предоставлены пользователями сайта, и администрация не несёт ответственности за их содержание. Просьба не заливать файлы, защищенные авторскими правами, а также файлы нелегального содержания!
cron