(Stoner Rock, Nu Metal, Metalcore, Hardcore, Hard Rock, Heavy Metal, Doom Metal, Death Metal, Black Metal) [CD] VA - Metal For The Masses Vol. 4 (2CD) - 2005, FLAC (image+.cue), lossless

 
 Статистика раздачи 
Размер: 1.25 ГБ   |  Зарегистрирован: 08 апр 2016, 10:42   |   .torrent скачан: 0 раз
Сидеров: 1  [ 0 байт/сек ]     Личеров: 0  [ 0 байт/сек ]  
  

(Stoner Rock, Nu Metal, Metalcore, Hardcore, Hard Rock, Heavy Metal, Doom Metal, Death Metal, Black Metal) [CD] VA - Metal For The Masses Vol. 4 (2CD) - 2005, FLAC (image+.cue), lossless

Сообщение Master Chief » 08 апр 2016, 10:42

Metal For The Masses Vol. 4

Жанр: Stoner Rock, Nu Metal, Metalcore, Hardcore, Hard Rock, Heavy Metal, Doom Metal, Death Metal, Black Metal
Носитель: CD
Страна-производитель диска (релиза): USA
Год издания: 2005
Издатель (лейбл): Century Media
Номер по каталогу: 7506-2
Аудиокодек: FLAC (*.flac)
Тип рипа: image+.cue
Битрейт аудио: lossless
Продолжительность: 02:32:37
Источник (релизер): Boris1
Наличие сканов в содержимом раздачи: да
#7701. God Forbid - The End Of The World (Edit)
02. Manntis - Weathered Soul
03. Diecast - These Days
04. Brand New Sin - Days Are Numbered (Edit)
05. Agents Of Man - Without A Trace
06. Shadows Fall - Enlightened By The Cold
07. Arch Enemy - Nemesis
08. The Haunted - No Compromise
09. Behemoth - Slaves Shall Serve
10. Old Man's Child - Enslaved And Condemned
11. Naglfar - Perpetual Horrors
12. Strapping Young Lad - Possessions (Edit)
13. Nevermore - The Psalm Of Lydia
14. Eyes Of Fire - It All Dies Today (Edit)
15. Into Eternity - Splintered Visions
16. Cryptopsy - The Pestilence That Walketh In Darkness
17. Watch Them Die - Bastard Son (Edit)
18. Napalm Death - Silence Is Deafening
19. Despised Icon - The Sunset Will Never Charm Us
20. Immolation - Harnessing Ruin
Код: Выделить всё
Exact Audio Copy V1.0 beta 3 from 29. August 2011

EAC extraction logfile from 4. April 2016, 14:10

Various Artists / Metal for the Masses:  Volume Four (Disc I)

Used drive  : PIONEER BD-RW   BDR-TD03   Adapter: 0  ID: 1

Read mode               : Secure
Utilize accurate stream : Yes
Defeat audio cache      : Yes
Make use of C2 pointers : No

Read offset correction                      : 667
Overread into Lead-In and Lead-Out          : No
Fill up missing offset samples with silence : Yes
Delete leading and trailing silent blocks   : No
Null samples used in CRC calculations       : Yes
Used interface                              : Native Win32 interface for Win NT & 2000

Used output format              : User Defined Encoder
Selected bitrate                : 768 kBit/s
Quality                         : High
Add ID3 tag                     : No
Command line compressor         : C:\Program Files (x86)\Exact Audio Copy\FLAC\FLAC.EXE
Additional command line options : -6 -V -T "ARTIST=%artist%" -T "TITLE=%title%" -T "ALBUM=%albumtitle%" -T "DATE=%year%" -T "TRACKNUMBER=%tracknr%" -T "GENRE=%genre%" -T "COMMENT=%comment%" -T "BAND=%albuminterpret%" -T "ALBUMARTIST=%albuminterpret%" -T "COMPOSER=%composer%" %haslyrics%--tag-from-file=LYRICS="%lyricsfile%"%haslyrics% -T "DISCNUMBER=%cdnumber%" -T "TOTALDISCS=%totalcds%" -T "TOTALTRACKS=%numtracks%" %hascover%--picture="%coverfile%"%hascover% %source% -o %dest%

TOC of the extracted CD

     Track |   Start  |  Length  | Start sector | End sector
    ---------------------------------------------------------
        1  |  0:00.00 |  4:58.56 |         0    |    22405
        2  |  4:58.56 |  3:05.39 |     22406    |    36319
        3  |  8:04.20 |  3:26.05 |     36320    |    51774
        4  | 11:30.25 |  3:19.34 |     51775    |    66733
        5  | 14:49.59 |  3:51.64 |     66734    |    84122
        6  | 18:41.48 |  3:01.74 |     84123    |    97771
        7  | 21:43.47 |  4:12.21 |     97772    |   116692
        8  | 25:55.68 |  3:44.12 |    116693    |   133504
        9  | 29:40.05 |  3:06.60 |    133505    |   147514
       10  | 32:46.65 |  4:14.73 |    147515    |   166637
       11  | 37:01.63 |  5:03.17 |    166638    |   189379
       12  | 42:05.05 |  4:13.60 |    189380    |   208414
       13  | 46:18.65 |  4:16.56 |    208415    |   227670
       14  | 50:35.46 |  3:49.00 |    227671    |   244845
       15  | 54:24.46 |  4:56.54 |    244846    |   267099
       16  | 59:21.25 |  3:26.28 |    267100    |   282577
       17  | 62:47.53 |  3:02.31 |    282578    |   296258
       18  | 65:50.09 |  3:48.16 |    296259    |   313374
       19  | 69:38.25 |  3:03.74 |    313375    |   327173
       20  | 72:42.24 |  4:31.50 |    327174    |   347548

Range status and errors

Selected range

     Filename C:\Users\Deris\Desktop\kpnemo.eu\MetForMas4\cd1\Various Artists - Metal for the Masses-  Volume Four (Disc I).wav

     Peak level 100.0 %
     Extraction speed 5.1 X
     Range quality 100.0 %
     Test CRC ABF340FF
     Copy CRC ABF340FF
     Copy OK

No errors occurred

AccurateRip summary

Track  1  accurately ripped (confidence 1)  [29956BAE]  (AR v1)
Track  2  accurately ripped (confidence 1)  [C13C770D]  (AR v1)
Track  3  accurately ripped (confidence 1)  [1490896F]  (AR v1)
Track  4  accurately ripped (confidence 1)  [809E3417]  (AR v1)
Track  5  accurately ripped (confidence 1)  [396D5AE1]  (AR v1)
Track  6  accurately ripped (confidence 1)  [A4010C11]  (AR v1)
Track  7  accurately ripped (confidence 1)  [B86CD4A6]  (AR v1)
Track  8  accurately ripped (confidence 1)  [A046F24B]  (AR v1)
Track  9  accurately ripped (confidence 1)  [7B5E4E3A]  (AR v1)
Track 10  accurately ripped (confidence 1)  [31CB0E9F]  (AR v1)
Track 11  accurately ripped (confidence 1)  [88D8889D]  (AR v1)
Track 12  accurately ripped (confidence 1)  [DB739F73]  (AR v1)
Track 13  accurately ripped (confidence 1)  [36241D2D]  (AR v1)
Track 14  accurately ripped (confidence 1)  [640F4C46]  (AR v1)
Track 15  accurately ripped (confidence 1)  [375BEB8D]  (AR v1)
Track 16  accurately ripped (confidence 1)  [BD73C745]  (AR v1)
Track 17  accurately ripped (confidence 1)  [ABDBBAFF]  (AR v1)
Track 18  accurately ripped (confidence 1)  [11834755]  (AR v1)
Track 19  accurately ripped (confidence 1)  [3895371A]  (AR v1)
Track 20  accurately ripped (confidence 1)  [C90AC028]  (AR v1)

All tracks accurately ripped

End of status report

---- CUETools DB Plugin V2.1.3

[CTDB TOCID: 9Rm6CmfupoMMpQb3TsEuvWFj.bE-] found, Submit result: 9Rm6CmfupoMMpQb3TsEuvWFj.bE- has been confirmed
[5f43104a] (2/2) Accurately ripped

==== Log checksum EBE92D754561CF87B79BC02257B8207F38576C720C6BC28C21F626DAC8565211 ====
Код: Выделить всё
REM GENRE Metal
REM DATE 2005
REM DISCID 2A121914
REM COMMENT "ExactAudioCopy v1.0b3"
PERFORMER "Various Artists"
TITLE "Metal for the Masses:  Volume Four (Disc I)"
FILE "Various Artists - Metal for the Masses-  Volume Four (Disc I).flac" WAVE
  TRACK 01 AUDIO
    TITLE "God Forbid - The End Of The World (Edit)"
    PERFORMER "Various Artists"
    INDEX 01 00:00:00
  TRACK 02 AUDIO
    TITLE "Weathered Soul"
    PERFORMER "Manntis"
    INDEX 01 04:58:56
  TRACK 03 AUDIO
    TITLE "These Days"
    PERFORMER "Diecast"
    INDEX 01 08:04:20
  TRACK 04 AUDIO
    TITLE "Days Are Numbered (Edit)"
    PERFORMER "Brand New Sin"
    INDEX 01 11:30:25
  TRACK 05 AUDIO
    TITLE "Without A Trace"
    PERFORMER "Agents Of Man"
    INDEX 01 14:49:59
  TRACK 06 AUDIO
    TITLE "Enlightened By The Cold"
    PERFORMER "Shadows Fall"
    INDEX 01 18:41:48
  TRACK 07 AUDIO
    TITLE "Nemesis"
    PERFORMER "Arch Enemy"
    INDEX 01 21:43:47
  TRACK 08 AUDIO
    TITLE "No Compromise"
    PERFORMER "The Haunted"
    INDEX 01 25:55:68
  TRACK 09 AUDIO
    TITLE "Slaves Shall Serve"
    PERFORMER "Behemoth"
    INDEX 01 29:40:05
  TRACK 10 AUDIO
    TITLE "Enslaved And Condemned"
    PERFORMER "Old Man's Child"
    INDEX 01 32:46:65
  TRACK 11 AUDIO
    TITLE "Perpetual Horrors"
    PERFORMER "Naglfar"
    INDEX 01 37:01:63
  TRACK 12 AUDIO
    TITLE "Possessions (Edit)"
    PERFORMER "Strapping Young Lad"
    INDEX 01 42:05:05
  TRACK 13 AUDIO
    TITLE "The Psalm Of Lydia"
    PERFORMER "Nevermore"
    INDEX 01 46:18:65
  TRACK 14 AUDIO
    TITLE "It All Dies Today (Edit)"
    PERFORMER "Eyes Of Fire"
    INDEX 01 50:35:46
  TRACK 15 AUDIO
    TITLE "Splintered Visions"
    PERFORMER "Into Eternity"
    INDEX 01 54:24:46
  TRACK 16 AUDIO
    TITLE "The Pestilence That Walketh In Darkness"
    PERFORMER "Cryptopsy"
    INDEX 01 59:21:25
  TRACK 17 AUDIO
    TITLE "Bastard Son (Edit)"
    PERFORMER "Watch Them Die"
    INDEX 01 62:47:53
  TRACK 18 AUDIO
    TITLE "Silence Is Deafening"
    PERFORMER "Napalm Death"
    INDEX 01 65:50:09
  TRACK 19 AUDIO
    TITLE "The Sunset Will Never Charm Us"
    PERFORMER "Despised Icon"
    INDEX 01 69:38:25
  TRACK 20 AUDIO
    TITLE "Harnessing Ruin"
    PERFORMER "Immolation"
    INDEX 01 72:42:24
Код: Выделить всё
foobar2000 1.1.10 / Dynamic Range Meter 1.1.1
log date: 2016-04-08 10:10:35

--------------------------------------------------------------------------------
Analyzed: Agents Of Man / Metal for the Masses:  Volume Four (Disc I) (1)
          Arch Enemy / Metal for the Masses:  Volume Four (Disc I) (2)
          Behemoth / Metal for the Masses:  Volume Four (Disc I) (3)
--------------------------------------------------------------------------------

DR         Peak         RMS     Duration Track
--------------------------------------------------------------------------------
DR5        0.00 dB    -6.41 dB      3:52 ?-Without A Trace
DR5       -0.09 dB    -6.19 dB      4:12 ?-Nemesis
DR4       -0.49 dB    -5.73 dB      3:07 ?-Slaves Shall Serve
--------------------------------------------------------------------------------

Number of tracks:  3
Official DR value: DR5

Samplerate:        44100 Hz
Channels:          2
Bits per sample:   16
Bitrate:           1087 kbps
Codec:             FLAC
================================================================================

--------------------------------------------------------------------------------
Analyzed: Brand New Sin / Metal for the Masses:  Volume Four (Disc I) (1)
          Cryptopsy / Metal for the Masses:  Volume Four (Disc I) (2)
          Despised Icon / Metal for the Masses:  Volume Four (Disc I) (3)
--------------------------------------------------------------------------------

DR         Peak         RMS     Duration Track
--------------------------------------------------------------------------------
DR6       -0.09 dB    -7.09 dB      3:19 ?-Days Are Numbered (Edit)
DR6        0.00 dB    -6.83 dB      3:26 ?-The Pestilence That Walketh In Darkness
DR5       -0.09 dB    -5.95 dB      3:04 ?-The Sunset Will Never Charm Us
--------------------------------------------------------------------------------

Number of tracks:  3
Official DR value: DR6

Samplerate:        44100 Hz
Channels:          2
Bits per sample:   16
Bitrate:           1087 kbps
Codec:             FLAC
================================================================================

--------------------------------------------------------------------------------
Analyzed: Diecast / Metal for the Masses:  Volume Four (Disc I) (1)
          Eyes Of Fire / Metal for the Masses:  Volume Four (Disc I) (2)
          Immolation / Metal for the Masses:  Volume Four (Disc I) (3)
--------------------------------------------------------------------------------

DR         Peak         RMS     Duration Track
--------------------------------------------------------------------------------
DR5       -0.09 dB    -5.94 dB      3:26 ?-These Days
DR6       -0.09 dB    -7.07 dB      3:49 ?-It All Dies Today (Edit)
DR6       -0.09 dB    -6.18 dB      4:32 ?-Harnessing Ruin
--------------------------------------------------------------------------------

Number of tracks:  3
Official DR value: DR6

Samplerate:        44100 Hz
Channels:          2
Bits per sample:   16
Bitrate:           1087 kbps
Codec:             FLAC
================================================================================

--------------------------------------------------------------------------------
Statistics for: ?-Splintered Visions
Number of samples: 13085352
Duration: 4:57
--------------------------------------------------------------------------------

                 Left              Right

Peak Value:     -0.09 dB   ---     -0.09 dB
Avg RMS:        -5.68 dB   ---     -6.00 dB
DR channel:      4.83 dB   ---      5.25 dB
--------------------------------------------------------------------------------

Official DR Value: DR5

Samplerate:        44100 Hz
Channels:          2
Bits per sample:   16
Bitrate:           1087 kbps
Codec:             FLAC
================================================================================
--------------------------------------------------------------------------------
Analyzed: Manntis / Metal for the Masses:  Volume Four (Disc I) (1)
          Naglfar / Metal for the Masses:  Volume Four (Disc I) (2)
          Napalm Death / Metal for the Masses:  Volume Four (Disc I) (3)
--------------------------------------------------------------------------------

DR         Peak         RMS     Duration Track
--------------------------------------------------------------------------------
DR5       -0.07 dB    -6.07 dB      3:06 ?-Weathered Soul
DR5       -0.09 dB    -6.22 dB      5:03 ?-Perpetual Horrors
DR5       -0.09 dB    -5.78 dB      3:48 ?-Silence Is Deafening
--------------------------------------------------------------------------------

Number of tracks:  3
Official DR value: DR5

Samplerate:        44100 Hz
Channels:          2
Bits per sample:   16
Bitrate:           1087 kbps
Codec:             FLAC
================================================================================

--------------------------------------------------------------------------------
Statistics for: ?-The Psalm Of Lydia
Number of samples: 11322528
Duration: 4:17
--------------------------------------------------------------------------------

                 Left              Right

Peak Value:     -0.09 dB   ---     -0.09 dB
Avg RMS:        -5.92 dB   ---     -6.09 dB
DR channel:      5.00 dB   ---      5.34 dB
--------------------------------------------------------------------------------

Official DR Value: DR5

Samplerate:        44100 Hz
Channels:          2
Bits per sample:   16
Bitrate:           1087 kbps
Codec:             FLAC
================================================================================
--------------------------------------------------------------------------------
Statistics for: ?-Enslaved And Condemned
Number of samples: 11244324
Duration: 4:15
--------------------------------------------------------------------------------

                 Left              Right

Peak Value:     -0.09 dB   ---     -0.09 dB
Avg RMS:        -6.06 dB   ---     -5.86 dB
DR channel:      4.84 dB   ---      4.78 dB
--------------------------------------------------------------------------------

Official DR Value: DR5

Samplerate:        44100 Hz
Channels:          2
Bits per sample:   16
Bitrate:           1087 kbps
Codec:             FLAC
================================================================================
--------------------------------------------------------------------------------
Analyzed: Shadows Fall / Metal for the Masses:  Volume Four (Disc I) (1)
          Strapping Young Lad / Metal for the Masses:  Volume Four (Disc I) (2)
--------------------------------------------------------------------------------

DR         Peak         RMS     Duration Track
--------------------------------------------------------------------------------
DR6        0.00 dB    -5.87 dB      3:02 ?-Enlightened By The Cold
DR6       -0.14 dB    -6.73 dB      4:14 ?-Possessions (Edit)
--------------------------------------------------------------------------------

Number of tracks:  2
Official DR value: DR6

Samplerate:        44100 Hz
Channels:          2
Bits per sample:   16
Bitrate:           1087 kbps
Codec:             FLAC
================================================================================

--------------------------------------------------------------------------------
Statistics for: ?-No Compromise
Number of samples: 9885456
Duration: 3:44
--------------------------------------------------------------------------------

                 Left              Right

Peak Value:     -0.59 dB   ---     -0.59 dB
Avg RMS:        -6.67 dB   ---     -6.61 dB
DR channel:      5.04 dB   ---      4.95 dB
--------------------------------------------------------------------------------

Official DR Value: DR5

Samplerate:        44100 Hz
Channels:          2
Bits per sample:   16
Bitrate:           1087 kbps
Codec:             FLAC
================================================================================
--------------------------------------------------------------------------------
Analyzed: Various Artists / Metal for the Masses:  Volume Four (Disc I) (1)
          Watch Them Die / Metal for the Masses:  Volume Four (Disc I) (2)
--------------------------------------------------------------------------------

DR         Peak         RMS     Duration Track
--------------------------------------------------------------------------------
DR5       -0.09 dB    -5.64 dB      4:59 ?-God Forbid - The End Of The World (Edit)
DR5       -0.13 dB    -5.67 dB      3:02 ?-Bastard Son (Edit)
--------------------------------------------------------------------------------

Number of tracks:  2
Official DR value: DR5

Samplerate:        44100 Hz
Channels:          2
Bits per sample:   16
Bitrate:           1087 kbps
Codec:             FLAC
================================================================================
#7701. Dimmu Borgir - Alt Lys Er Svunnet Hen
02. Soilwork - Nerve
03. In Flames - Like You Better Dead
04. Meshuggah - Shed
05. Bleed The Sky - Kill Tank
06. Darkane - Secondary Effects
07. Mnemic - Door 2.12
08. Hypocrisy - Scrutinized
09. Exodus - Now The Death Day Come
10. Cathedral - Tree Of Life & Death
11. Fireball Ministry - Sundown
12. Nebula - Lightbringer (Demo)
13. The Hellacopters - Everything's On T.V
14. The Illuminati - Goin' Down
15. The Black Halos - Three Sheets To The Wind
16. Crash Kelly - Love Me Electric
17. The Thieves - Gimme Some Lip
18. Scott Reeder - The Day Of Neverending (Demo)
19. American Heartbreak - Things Are Looking Up
20. Backyard Babies - Brand New Hate
Код: Выделить всё
Exact Audio Copy V1.0 beta 3 from 29. August 2011

EAC extraction logfile from 4. April 2016, 23:59

Various Artists / Metal For The Masses Volume 4 (Disc 2)

Used drive  : PIONEER BD-RW   BDR-TD03   Adapter: 0  ID: 1

Read mode               : Secure
Utilize accurate stream : Yes
Defeat audio cache      : Yes
Make use of C2 pointers : No

Read offset correction                      : 667
Overread into Lead-In and Lead-Out          : No
Fill up missing offset samples with silence : Yes
Delete leading and trailing silent blocks   : No
Null samples used in CRC calculations       : Yes
Used interface                              : Native Win32 interface for Win NT & 2000

Used output format              : User Defined Encoder
Selected bitrate                : 768 kBit/s
Quality                         : High
Add ID3 tag                     : No
Command line compressor         : C:\Program Files (x86)\Exact Audio Copy\FLAC\FLAC.EXE
Additional command line options : -6 -V -T "ARTIST=%artist%" -T "TITLE=%title%" -T "ALBUM=%albumtitle%" -T "DATE=%year%" -T "TRACKNUMBER=%tracknr%" -T "GENRE=%genre%" -T "COMMENT=%comment%" -T "BAND=%albuminterpret%" -T "ALBUMARTIST=%albuminterpret%" -T "COMPOSER=%composer%" %haslyrics%--tag-from-file=LYRICS="%lyricsfile%"%haslyrics% -T "DISCNUMBER=%cdnumber%" -T "TOTALDISCS=%totalcds%" -T "TOTALTRACKS=%numtracks%" %hascover%--picture="%coverfile%"%hascover% %source% -o %dest%

TOC of the extracted CD

     Track |   Start  |  Length  | Start sector | End sector
    ---------------------------------------------------------
        1  |  0:00.00 |  4:44.21 |         0    |    21320
        2  |  4:44.21 |  3:38.56 |     21321    |    37726
        3  |  8:23.02 |  3:22.60 |     37727    |    52936
        4  | 11:45.62 |  3:34.29 |     52937    |    69015
        5  | 15:20.16 |  3:37.49 |     69016    |    85339
        6  | 18:57.65 |  3:55.48 |     85340    |   103012
        7  | 22:53.38 |  4:22.44 |    103013    |   122706
        8  | 27:16.07 |  4:24.55 |    122707    |   142561
        9  | 31:40.62 |  5:11.11 |    142562    |   165897
       10  | 36:51.73 |  4:35.38 |    165898    |   186560
       11  | 41:27.36 |  4:29.62 |    186561    |   206797
       12  | 45:57.23 |  3:15.73 |    206798    |   221495
       13  | 49:13.21 |  3:14.53 |    221496    |   236098
       14  | 52:27.74 |  1:52.66 |    236099    |   244564
       15  | 54:20.65 |  3:35.14 |    244565    |   260703
       16  | 57:56.04 |  3:42.18 |    260704    |   277371
       17  | 61:38.22 |  3:18.42 |    277372    |   292263
       18  | 64:56.64 |  4:25.50 |    292264    |   312188
       19  | 69:22.39 |  3:21.29 |    312189    |   327292
       20  | 72:43.68 |  3:01.09 |    327293    |   340876

Range status and errors

Selected range

     Filename C:\Users\Deris\Desktop\kpnemo.eu\MetForMas4\cd2\Various Artists - Metal For The Masses Volume 4 (Disc 2).wav

     Peak level 100.0 %
     Extraction speed 5.1 X
     Range quality 100.0 %
     Test CRC 69C306A2
     Copy CRC 69C306A2
     Copy OK

No errors occurred

AccurateRip summary

Track  1  accurately ripped (confidence 1)  [2BEC9B95]  (AR v1)
Track  2  accurately ripped (confidence 1)  [A6EE6F72]  (AR v1)
Track  3  accurately ripped (confidence 1)  [B71E56BC]  (AR v1)
Track  4  accurately ripped (confidence 1)  [38954C8D]  (AR v1)
Track  5  accurately ripped (confidence 1)  [15766A82]  (AR v1)
Track  6  accurately ripped (confidence 1)  [1B8C273A]  (AR v1)
Track  7  accurately ripped (confidence 1)  [A5A67CB3]  (AR v1)
Track  8  accurately ripped (confidence 1)  [EB0CDB12]  (AR v1)
Track  9  accurately ripped (confidence 1)  [62D06D06]  (AR v1)
Track 10  accurately ripped (confidence 1)  [D9196E0A]  (AR v1)
Track 11  accurately ripped (confidence 1)  [CCD1039B]  (AR v1)
Track 12  accurately ripped (confidence 1)  [DC256B3D]  (AR v1)
Track 13  accurately ripped (confidence 1)  [8F9CDE76]  (AR v1)
Track 14  accurately ripped (confidence 1)  [E47960AF]  (AR v1)
Track 15  accurately ripped (confidence 1)  [FEF273F2]  (AR v1)
Track 16  accurately ripped (confidence 1)  [3F5DD229]  (AR v1)
Track 17  accurately ripped (confidence 1)  [0B9A7426]  (AR v1)
Track 18  accurately ripped (confidence 1)  [2CEEA418]  (AR v1)
Track 19  accurately ripped (confidence 1)  [EA21A961]  (AR v1)
Track 20  accurately ripped (confidence 1)  [BB7C8987]  (AR v1)

All tracks accurately ripped

End of status report

---- CUETools DB Plugin V2.1.3

[CTDB TOCID: 4u2YkCbzD1wtYz8ZuMEOD9mRQA4-] found, Submit result: 4u2YkCbzD1wtYz8ZuMEOD9mRQA4- has been confirmed
[ab041bd7] (2/2) Accurately ripped

==== Log checksum C1BB72F7DEB6B2AADDD72721AAA2663938067E7A0360216B2C7E6A6C3F74D720 ====
Код: Выделить всё
REM GENRE Metal
REM DATE 2005
REM DISCID 3A11C114
REM COMMENT "ExactAudioCopy v1.0b3"
PERFORMER "Various Artists"
TITLE "Metal For The Masses Volume 4 (Disc 2)"
FILE "Various Artists - Metal For The Masses Volume 4 (Disc 2).flac" WAVE
  TRACK 01 AUDIO
    TITLE "Alt Lys Er Svunnet Hen"
    PERFORMER "Dimmu Borgir"
    INDEX 01 00:00:00
  TRACK 02 AUDIO
    TITLE "Nerve"
    PERFORMER "Soilwork"
    INDEX 01 04:44:21
  TRACK 03 AUDIO
    TITLE "Like You Better Dead"
    PERFORMER "In Flames"
    INDEX 01 08:23:02
  TRACK 04 AUDIO
    TITLE "Shed"
    PERFORMER "Meshuggah"
    INDEX 01 11:45:62
  TRACK 05 AUDIO
    TITLE "Kill Tank"
    PERFORMER "Bleed The Sky"
    INDEX 01 15:20:16
  TRACK 06 AUDIO
    TITLE "Secondary Effects"
    PERFORMER "Darkane"
    INDEX 01 18:57:65
  TRACK 07 AUDIO
    TITLE "Door 2.12"
    PERFORMER "Mnemic"
    INDEX 01 22:53:38
  TRACK 08 AUDIO
    TITLE "Scrutinized"
    PERFORMER "Hypocrisy"
    INDEX 01 27:16:07
  TRACK 09 AUDIO
    TITLE "Now The Death Day Come"
    PERFORMER "Exodus"
    INDEX 01 31:40:62
  TRACK 10 AUDIO
    TITLE "Tree Of Life & Death"
    PERFORMER "Cathedral"
    INDEX 01 36:51:73
  TRACK 11 AUDIO
    TITLE "Sundown"
    PERFORMER "Fireball Ministry"
    INDEX 01 41:27:36
  TRACK 12 AUDIO
    TITLE "Lightbringer (Demo)"
    PERFORMER "Nebula"
    INDEX 01 45:57:23
  TRACK 13 AUDIO
    TITLE "Everything's On T.V"
    PERFORMER "The Hellacopters"
    INDEX 01 49:13:21
  TRACK 14 AUDIO
    TITLE "Goin' Down"
    PERFORMER "The Illuminati"
    INDEX 01 52:27:74
  TRACK 15 AUDIO
    TITLE "Three Sheets To The Wind"
    PERFORMER "The Black Halos"
    INDEX 01 54:20:65
  TRACK 16 AUDIO
    TITLE "Love Me Electric"
    PERFORMER "Crash Kelly"
    INDEX 01 57:56:04
  TRACK 17 AUDIO
    TITLE "Gimme Some Lip"
    PERFORMER "The Thieves"
    INDEX 01 61:38:22
  TRACK 18 AUDIO
    TITLE "The Day Of Neverending (Demo)"
    PERFORMER "Scott Reeder"
    INDEX 01 64:56:64
  TRACK 19 AUDIO
    TITLE "Things Are Looking Up"
    PERFORMER "American Hearbreak"
    INDEX 01 69:22:39
  TRACK 20 AUDIO
    TITLE "Brand New Hate"
    PERFORMER "Backyard Babies"
    INDEX 01 72:43:68
Код: Выделить всё
foobar2000 1.1.10 / Dynamic Range Meter 1.1.1
log date: 2016-04-08 10:17:07

--------------------------------------------------------------------------------
Analyzed: American Hearbreak / Metal For The Masses Volume 4 (Disc 2) (1)
          Backyard Babies / Metal For The Masses Volume 4 (Disc 2) (2)
--------------------------------------------------------------------------------

DR         Peak         RMS     Duration Track
--------------------------------------------------------------------------------
DR6       -0.41 dB    -7.39 dB      3:21 ?-Things Are Looking Up
DR5       -0.44 dB    -5.83 dB      3:01 ?-Brand New Hate
--------------------------------------------------------------------------------

Number of tracks:  2
Official DR value: DR5

Samplerate:        44100 Hz
Channels:          2
Bits per sample:   16
Bitrate:           1035 kbps
Codec:             FLAC
================================================================================

--------------------------------------------------------------------------------
Analyzed: Bleed The Sky / Metal For The Masses Volume 4 (Disc 2) (1)
          Cathedral / Metal For The Masses Volume 4 (Disc 2) (2)
          Crash Kelly / Metal For The Masses Volume 4 (Disc 2) (3)
--------------------------------------------------------------------------------

DR         Peak         RMS     Duration Track
--------------------------------------------------------------------------------
DR4        0.00 dB    -4.88 dB      3:38 ?-Kill Tank
DR5       -0.07 dB    -5.95 dB      4:36 ?-Tree Of Life & Death
DR6       -0.62 dB    -7.58 dB      3:42 ?-Love Me Electric
--------------------------------------------------------------------------------

Number of tracks:  3
Official DR value: DR5

Samplerate:        44100 Hz
Channels:          2
Bits per sample:   16
Bitrate:           1035 kbps
Codec:             FLAC
================================================================================

--------------------------------------------------------------------------------
Statistics for: ?-Secondary Effects
Number of samples: 10391724
Duration: 3:56
--------------------------------------------------------------------------------

                 Left              Right

Peak Value:     -0.10 dB   ---     -0.10 dB
Avg RMS:        -5.00 dB   ---     -4.89 dB
DR channel:      3.91 dB   ---      3.67 dB
--------------------------------------------------------------------------------

Official DR Value: DR4

Samplerate:        44100 Hz
Channels:          2
Bits per sample:   16
Bitrate:           1035 kbps
Codec:             FLAC
================================================================================
--------------------------------------------------------------------------------
Analyzed: Dimmu Borgir / Metal For The Masses Volume 4 (Disc 2) (1)
          Exodus / Metal For The Masses Volume 4 (Disc 2) (2)
          Fireball Ministry / Metal For The Masses Volume 4 (Disc 2) (3)
--------------------------------------------------------------------------------

DR         Peak         RMS     Duration Track
--------------------------------------------------------------------------------
DR5       -0.09 dB    -5.76 dB      4:44 ?-Alt Lys Er Svunnet Hen
DR5       -0.08 dB    -5.61 dB      5:11 ?-Now The Death Day Come
DR5       -0.12 dB    -6.22 dB      4:30 ?-Sundown
--------------------------------------------------------------------------------

Number of tracks:  3
Official DR value: DR5

Samplerate:        44100 Hz
Channels:          2
Bits per sample:   16
Bitrate:           1035 kbps
Codec:             FLAC
================================================================================

--------------------------------------------------------------------------------
Statistics for: ?-Scrutinized
Number of samples: 11674740
Duration: 4:25
--------------------------------------------------------------------------------

                 Left              Right

Peak Value:     -0.97 dB   ---     -0.97 dB
Avg RMS:        -5.21 dB   ---     -5.69 dB
DR channel:      3.22 dB   ---      3.64 dB
--------------------------------------------------------------------------------

Official DR Value: DR3

Samplerate:        44100 Hz
Channels:          2
Bits per sample:   16
Bitrate:           1035 kbps
Codec:             FLAC
================================================================================
--------------------------------------------------------------------------------
Analyzed: In Flames / Metal For The Masses Volume 4 (Disc 2) (1)
          Meshuggah / Metal For The Masses Volume 4 (Disc 2) (2)
          Mnemic / Metal For The Masses Volume 4 (Disc 2) (3)
          Nebula / Metal For The Masses Volume 4 (Disc 2) (4)
          Scott Reeder / Metal For The Masses Volume 4 (Disc 2) (5)
--------------------------------------------------------------------------------

DR         Peak         RMS     Duration Track
--------------------------------------------------------------------------------
DR5       -0.57 dB    -6.38 dB      3:23 ?-Like You Better Dead
DR4       -0.49 dB    -5.31 dB      3:34 ?-Shed
DR4       -0.73 dB    -5.44 dB      4:23 ?-Door 2.12
DR5       -0.08 dB    -5.89 dB      3:16 ?-Lightbringer (Demo)
DR5       -0.09 dB    -6.98 dB      4:26 ?-The Day Of Neverending (Demo)
--------------------------------------------------------------------------------

Number of tracks:  5
Official DR value: DR5

Samplerate:        44100 Hz
Channels:          2
Bits per sample:   16
Bitrate:           1035 kbps
Codec:             FLAC
================================================================================

--------------------------------------------------------------------------------
Analyzed: Soilwork / Metal For The Masses Volume 4 (Disc 2) (1)
          The Black Halos / Metal For The Masses Volume 4 (Disc 2) (2)
--------------------------------------------------------------------------------

DR         Peak         RMS     Duration Track
--------------------------------------------------------------------------------
DR5       -0.09 dB    -6.18 dB      3:39 ?-Nerve
DR6       -0.12 dB    -6.52 dB      3:35 ?-Three Sheets To The Wind
--------------------------------------------------------------------------------

Number of tracks:  2
Official DR value: DR5

Samplerate:        44100 Hz
Channels:          2
Bits per sample:   16
Bitrate:           1035 kbps
Codec:             FLAC
================================================================================

--------------------------------------------------------------------------------
Analyzed: The Hellacopters / Metal For The Masses Volume 4 (Disc 2) (1)
          The Illuminati / Metal For The Masses Volume 4 (Disc 2) (2)
          The Thieves / Metal For The Masses Volume 4 (Disc 2) (3)
--------------------------------------------------------------------------------

DR         Peak         RMS     Duration Track
--------------------------------------------------------------------------------
DR5       -0.64 dB    -7.73 dB      3:15 ?-Everything's On T.V
DR6       -0.02 dB    -7.10 dB      1:53 ?-Goin' Down
DR6       -0.11 dB    -6.93 dB      3:19 ?-Gimme Some Lip
--------------------------------------------------------------------------------

Number of tracks:  3
Official DR value: DR6

Samplerate:        44100 Hz
Channels:          2
Bits per sample:   16
Bitrate:           1035 kbps
Codec:             FLAC
================================================================================
 
Не забывайте говорить Спасибо. Не уходите с раздачи!   
Торрент: Зарегистрирован [08 апр 2016, 10:42] Для скачивания .torrent
необходима регистрация
Или скачать с помощью
MediaGet
Статус:
Проверен
 
.torrent скачан: 0 раз
Хэш: af23c24cdaa2fbf4527c41480809eb3eea226869
Размер: 1.25 ГБ (1 342 231 936 байт)
Стать Автором раздачи
 
Аватара пользователя
Администратор
Администратор
 
Раздал: 56.73 ТБ
Скачал: 79.93 ТБ
Ратио: 0.710
Сообщения: 76582
Зарегистрирован: 07 янв 2011, 16:36


  • Похожие торренты
    Ответы
    Просмотры
    Последнее сообщение

Вернуться в Сборники "Зарубежный Metal" (lossless)

Ресурс не предоставляет электронные версии произведений, а занимается лишь коллекционированием и каталогизацией ссылок, присылаемых и публикуемых на форуме нашими читателями. Если вы являетесь правообладателем какого-либо представленного материала и не желаете чтобы ссылка на него находилась в нашем каталоге, свяжитесь с нами и мы незамедлительно удалим её. Файлы для обмена на трекере предоставлены пользователями сайта, и администрация не несёт ответственности за их содержание. Просьба не заливать файлы, защищенные авторскими правами, а также файлы нелегального содержания!
cron