(Metal) [CD] VA - Nativity In Black: A Tribute To Black Sabbath (Japanese Ed.) - 1994, FLAC (image+.cue), lossless

 
 Статистика раздачи 
Размер: 739.34 МБ   |  Зарегистрирован: 30 апр 2016, 18:49   |   .torrent скачан: 2 раз
Сидеров: 1  [ 0 байт/сек ]     Личеров: 0  [ 0 байт/сек ]  
  

(Metal) [CD] VA - Nativity In Black: A Tribute To Black Sabbath (Japanese Ed.) - 1994, FLAC (image+.cue), lossless

Сообщение aLaVodka » 30 апр 2016, 18:49

Nativity In Black: A Tribute To Black Sabbath (Japanese Ed.)

Жанр: Metal
Носитель: CD
Страна-производитель диска (релиза): Japan
Год издания: 1994
Издатель (лейбл): Sony Music Entertainment
Номер по каталогу: SRCS-7488
Аудиокодек: FLAC (*.flac)
Тип рипа: image+.cue
Битрейт аудио: lossless
Продолжительность: 01:15:42
Источник (релизер): Necromandus ( спасибо )
Наличие сканов в содержимом раздачи: да
Треклист:
1. Biohazard - After Forever - 5:47
2. White Zombie - Children Of The Grave - 5:50
3. Megadeth - Paranoid - 2:32
4. 1,000 Homo Dj's - Supernaut - 6:39
5. Ozzy Osbourne with Therapy? - Iron Man - 5:26
6. Corrosion Of Conformity - Lord Of This World - 6:25
7. Sepultura - Symptom Of The Universe - 4:15
8. Bullring Brummies - The Wizard - 5:01
9. Bruce Dickinson with Godspeed - Sabbath Bloody Sabbath - 5:36
10. Ugly Kid Joe - N.I.B. - 5:28
11. Faith No More - War Pigs - 7:02
12. Type O Negative - Black Sabbath - 7:49
13. Cathedral - St.Vitus'Dance (Japanese bonus track) - 2:26
14. Cathedral - Wheels Of Confusion (Japanese bonus track) - 5:31
Код: Выделить всё
Exact Audio Copy V1.1 from 23. June 2015

EAC extraction logfile from 31. March 2016, 11:16

V.A. / Nativity In Black - A Tribute To Black Sabbath (SRCS-7488)

Used drive  : TSSTcorpCDDVDW SH-S223F   Adapter: 1  ID: 0

Read mode               : Secure
Utilize accurate stream : Yes
Defeat audio cache      : Yes
Make use of C2 pointers : No

Read offset correction                      : 6
Overread into Lead-In and Lead-Out          : No
Fill up missing offset samples with silence : Yes
Delete leading and trailing silent blocks   : No
Null samples used in CRC calculations       : Yes
Used interface                              : Native Win32 interface for Win NT & 2000

Used output format : Internal WAV Routines
Sample format      : 44.100 Hz; 16 Bit; Stereo

TOC of the extracted CD

     Track |   Start  |  Length  | Start sector | End sector
    ---------------------------------------------------------
        1  |  0:00.00 |  5:46.40 |         0    |    25989
        2  |  5:46.40 |  5:50.10 |     25990    |    52249
        3  | 11:36.50 |  2:31.55 |     52250    |    63629
        4  | 14:08.30 |  6:39.17 |     63630    |    93571
        5  | 20:47.47 |  5:25.65 |     93572    |   118011
        6  | 26:13.37 |  6:24.73 |    118012    |   146884
        7  | 32:38.35 |  4:15.25 |    146885    |   166034
        8  | 36:53.60 |  5:01.20 |    166035    |   188629
        9  | 41:55.05 |  5:36.27 |    188630    |   213856
       10  | 47:31.32 |  5:28.18 |    213857    |   238474
       11  | 52:59.50 |  7:02.20 |    238475    |   270144
       12  | 60:01.70 |  7:49.30 |    270145    |   305349
       13  | 67:51.25 |  2:26.12 |    305350    |   316311
       14  | 70:17.37 |  5:31.18 |    316312    |   341154

Range status and errors

Selected range

     Filename Z:\by Necromandus [MeTaLMaDNeSS.TeaM]\V.A. - Nativity In Black - A Tribute To Black Sabbath (SRCS-7488).wav

     Peak level 100.0 %
     Extraction speed 3.4 X
     Range quality 99.9 %
     Test CRC AC19697F
     Copy CRC AC19697F
     Copy OK

No errors occurred

AccurateRip summary

Track  1  accurately ripped (confidence 4)  [4920E49E]  (AR v2)
Track  2  accurately ripped (confidence 3)  [FA7141D4]  (AR v2)
Track  3  accurately ripped (confidence 3)  [8E0743AF]  (AR v2)
Track  4  accurately ripped (confidence 3)  [10BFE768]  (AR v2)
Track  5  accurately ripped (confidence 3)  [B3E1687D]  (AR v2)
Track  6  accurately ripped (confidence 3)  [6B6D0C94]  (AR v2)
Track  7  accurately ripped (confidence 3)  [A77690C2]  (AR v2)
Track  8  accurately ripped (confidence 3)  [9EE2D06E]  (AR v2)
Track  9  accurately ripped (confidence 3)  [2B5D5A84]  (AR v2)
Track 10  accurately ripped (confidence 3)  [BCFDDA0C]  (AR v2)
Track 11  accurately ripped (confidence 3)  [94F059E9]  (AR v2)
Track 12  accurately ripped (confidence 3)  [2F14A76B]  (AR v2)
Track 13  accurately ripped (confidence 3)  [8112AAE4]  (AR v2)
Track 14  accurately ripped (confidence 3)  [C9841C46]  (AR v2)

All tracks accurately ripped

End of status report

---- CUETools DB Plugin V2.1.6

[CTDB TOCID: PyQ9K8_KgPw9CrLi7du1VGx2L6c-] found
Submit result: PyQ9K8_KgPw9CrLi7du1VGx2L6c- has been confirmed
Track | CTDB Status
  1   | (10/10) Accurately ripped
  2   | (10/10) Accurately ripped
  3   | (10/10) Accurately ripped
  4   | (10/10) Accurately ripped
  5   | (10/10) Accurately ripped
  6   | (10/10) Accurately ripped
  7   | (10/10) Accurately ripped
  8   | (10/10) Accurately ripped
  9   | (10/10) Accurately ripped
 10   | (10/10) Accurately ripped
 11   | (10/10) Accurately ripped
 12   | (10/10) Accurately ripped
 13   | (10/10) Accurately ripped
 14   | (10/10) Accurately ripped

==== Log checksum D165347322E07E0C4A7F4953D17862B30F06E2AEB462D3A86526F7E8545A8766 ====
Код: Выделить всё
REM GENRE Metal
REM DATE 1994
REM DISCID C911C40E
REM COMMENT "ExactAudioCopy v1.1"
PERFORMER "V.A."
TITLE "Nativity In Black - A Tribute To Black Sabbath (SRCS-7488)"
FILE "V.A. - Nativity In Black - A Tribute To Black Sabbath (SRCS-7488).wav" WAVE
  TRACK 01 AUDIO
    TITLE "Biohazard - After Forever"
    PERFORMER "V.A."
    INDEX 01 00:00:00
  TRACK 02 AUDIO
    TITLE "White Zombie - Children Of The Grave"
    PERFORMER "V.A."
    INDEX 01 05:46:40
  TRACK 03 AUDIO
    TITLE "Megadeth - Paranoid"
    PERFORMER "V.A."
    INDEX 01 11:36:50
  TRACK 04 AUDIO
    TITLE "1,000 Homo Dj's - Supernaut"
    PERFORMER "V.A."
    INDEX 01 14:08:30
  TRACK 05 AUDIO
    TITLE "Ozzy Osbourne With Therapy? - Iron Man"
    PERFORMER "V.A."
    INDEX 01 20:47:47
  TRACK 06 AUDIO
    TITLE "Corrosion Of Conformity - Lord Of This World"
    PERFORMER "V.A."
    INDEX 01 26:13:37
  TRACK 07 AUDIO
    TITLE "Sepultura - Symptom Of The Universe"
    PERFORMER "V.A."
    INDEX 01 32:38:35
  TRACK 08 AUDIO
    TITLE "Bullring Brummies - The Wizard"
    PERFORMER "V.A."
    INDEX 01 36:53:60
  TRACK 09 AUDIO
    TITLE "Bruce Dickinson With Godspeed - Sabbath Bloody Sabbath"
    PERFORMER "V.A."
    INDEX 01 41:55:05
  TRACK 10 AUDIO
    TITLE "Ugly Kid Joe - N.I.B."
    PERFORMER "V.A."
    INDEX 01 47:31:32
  TRACK 11 AUDIO
    TITLE "Faith No More - War Pigs"
    PERFORMER "V.A."
    INDEX 00 52:58:50
    INDEX 01 52:59:50
  TRACK 12 AUDIO
    TITLE "Type O Negative - Black Sabbath"
    PERFORMER "V.A."
    INDEX 01 60:01:70
  TRACK 13 AUDIO
    TITLE "Cathedral - St.Vitus'Dance (Japanese Bonus Track)"
    PERFORMER "V.A."
    INDEX 00 67:48:37
    INDEX 01 67:51:25
  TRACK 14 AUDIO
    TITLE "Cathedral - Wheels Of Confusion (Japanese Bonus Track)"
    PERFORMER "V.A."
    INDEX 00 70:15:30
    INDEX 01 70:17:37
Код: Выделить всё
[CUETools log; Date: 31.03.2016 11:29:21; Version: 2.1.5]
 [CTDB TOCID: PyQ9K8_KgPw9CrLi7du1VGx2L6c-] found.
 Track | CTDB Status
   1   | (11/11) Accurately ripped
   2   | (11/11) Accurately ripped
   3   | (11/11) Accurately ripped
   4   | (11/11) Accurately ripped
   5   | (11/11) Accurately ripped
   6   | (11/11) Accurately ripped
   7   | (11/11) Accurately ripped
   8   | (11/11) Accurately ripped
   9   | (11/11) Accurately ripped
  10   | (11/11) Accurately ripped
  11   | (11/11) Accurately ripped
  12   | (11/11) Accurately ripped
  13   | (11/11) Accurately ripped
  14   | (11/11) Accurately ripped
 [AccurateRip ID: 0026c30a-019f394a-c911c40e] found.
 Track   [  CRC   |   V2   ] Status
  01     [6ca95705|4920e49e] (3+4/7) Accurately ripped
  02     [bb99e8db|fa7141d4] (3+3/6) Accurately ripped
  03     [811820ee|8e0743af] (3+3/6) Accurately ripped
  04     [cb6d33fe|10bfe768] (2+3/5) Accurately ripped
  05     [eee4d7ea|b3e1687d] (2+3/5) Accurately ripped
  06     [ef341f8b|6b6d0c94] (3+3/6) Accurately ripped
  07     [6df0fbd9|a77690c2] (3+3/6) Accurately ripped
  08     [48abfefd|9ee2d06e] (2+3/5) Accurately ripped
  09     [4e650ad7|2b5d5a84] (2+3/5) Accurately ripped
  10     [a0afd2da|bcfdda0c] (2+3/5) Accurately ripped
  11     [a6816344|94f059e9] (0+3/3) Accurately ripped
  12     [86be25b0|2f14a76b] (3+3/6) Accurately ripped
  13     [bad4972c|8112aae4] (3+3/6) Accurately ripped
  14     [4ee749a1|c9841c46] (3+3/6) Accurately ripped

 Track Peak [ CRC32  ] [W/O NULL] [  LOG   ]
  --  100,0 [AC19697F] [B0740FC7]   CRC32
  01   98,6 [3E0C968F] [7CFD4812]
  02   88,1 [388B4544] [80D857BE]
  03   98,3 [311C48B5] [541F8E0B]
  04   88,0 [D565D868] [4C4EE74C]
  05   88,1 [7E0BAC59] [41032025]
  06   97,2 [B055A68A] [5D5E738D]
  07   81,9 [041AAAAC] [84E1ADB0]
  08   92,8 [E89160B6] [94342ED9]
  09  100,0 [8E1EF47E] [7375ACDF]
  10   93,2 [0A090439] [EF05405C]
  11   93,4 [143CCF4F] [3DFB3BCD]
  12   93,6 [C7357C54] [97DD36A4]
  13   98,5 [3E94FB4F] [2FA84376]
  14   98,4 [4DA14BB3] [634F164B]
-----------------------

DON'T MODIFY THIS FILE

-----------------------

PERFORMER: auCDtect Task Manager, ver. 1.5.1RC4 build 1.5.1.5
Copyright (c) 2008-2010 y-soft. All rights reserved
http://y-soft.org

ANALYZER: auCDtect: CD records authenticity detector, version 0.8.2
Copyright (c) 2004 Oleg Berngardt. All rights reserved.
Copyright (c) 2004 Alexander Djourik. All rights reserved.

FILE: V.A. - Nativity In Black - A Tribute To Black Sabbath (SRCS-7488).wav
Size: 802396604 Hash: 0621DD99F408167409582FDAC3C12E9A Accuracy: -m0
Conclusion: CDDA 100%
Signature: 2DC0D5302FE79A73EFEC68A83FEF6BD7EE29AD79
Perhaps more than any other single group, the Sabbath sound lay at the heart of Seattle's grunge movement 20-some years later. And many of today's top sonic heavyweights are only too ecstatic to give credit where credit is due. The liner notes may somewhat overstate Black Sabbath's ultimate importance, and quotes from the participating groups tend to gush with the praise of devoted acolytes…but that's exactly the point. The Nativity contributors approach the music with all the passion and spark of real fans, while never boxing themselves into slavish recreations of the original compositions.
 
Не забывайте говорить Спасибо. Не уходите с раздачи!   
Торрент: Зарегистрирован [30 апр 2016, 18:49] Для скачивания .torrent
необходима регистрация
Или скачать с помощью
MediaGet
Статус:
Проверен
 
.torrent скачан: 2 раз
Хэш: bdb1632ac9650d8e29c1607792d469bcf9bbd7e5
Размер: 739.34 МБ (775 252 057 байт)
Стать Автором раздачи
 
 
Раздал: 100 ГБ
Скачал: 0 байт
Ратио: Seed.
Сообщения: 190294
Зарегистрирован: 09 апр 2015, 20:00


  • Похожие торренты
    Ответы
    Просмотры
    Последнее сообщение

Вернуться в Сборники "Зарубежный Metal" (lossless)

Ресурс не предоставляет электронные версии произведений, а занимается лишь коллекционированием и каталогизацией ссылок, присылаемых и публикуемых на форуме нашими читателями. Если вы являетесь правообладателем какого-либо представленного материала и не желаете чтобы ссылка на него находилась в нашем каталоге, свяжитесь с нами и мы незамедлительно удалим её. Файлы для обмена на трекере предоставлены пользователями сайта, и администрация не несёт ответственности за их содержание. Просьба не заливать файлы, защищенные авторскими правами, а также файлы нелегального содержания!
cron