Handmade Anime / Аниме руками отаку [2010, Другое, 19 из ?] WEBRip 384p raw

 
 Статистика раздачи 
Размер: 272.95 МБ   |  Зарегистрирован: 26 май 2016, 19:45   |   .torrent скачан: 0 раз
Сидеров: 1  [ 0 байт/сек ]     Личеров: 0  [ 0 байт/сек ]  
  

Handmade Anime / Аниме руками отаку [2010, Другое, 19 из ?] WEBRip 384p raw

Сообщение explosiveone » 26 май 2016, 19:45

Handmade Anime / Аниме руками отаку

Тип: Другое
Жанр: комедия, юмор, кроссовер
Продолжительность: Web, от 1 до 7 мин.
Количество серий: 19 из ?

Дата выпуска: с 2010 по настоящее время
Производство: Handmade
Режиссер: сам себе режиссер

Ссылки: nico-nico douga

Описание:
Сделанные японскими отаку пародии на различные аниме. Особо подчёркиваю, что это не AMW, а именно самодельное аниме, в основном опенинги и эндинги.
Раздача, надеюсь, будет регулярно пополнятся, так как:
1. Я перерыл ещё не весь видеохостинг
2. Появляются новые аниме и, соответственно, отаку делают новые пародии.

Звук: Японский
Субтитры: не требуются.

Качество видео: WEBRip
Видео: AVC ([email protected]), 512x384 (4:3), ~30.000 fps, ~289 kbps
Аудио: AAC LC, 2 ch, 44.1 kHz, ~192 kbps
Скриншоты:


Код:
Код: Выделить всё
Общее
Полное имя                               : G:\Handmade Anime\[Ranma 1-2] [Voice imitating] tried to sing lambada.mp4
Формат                                   : MPEG-4
Профиль формата                          : Base Media
Идентификатор кодека                     : isom (isom)
Размер файла                             : 13,0 Мбайт
Продолжительность                        : 3 м. 45 с.
Режим общего битрейта                    : Переменный
Общий поток                              : 485 Кбит/сек
Дата кодирования                         : UTC 2011-12-08 11:20:45
Дата пометки                             : UTC 2011-12-08 11:20:45
Правообладатель                          : SMILEVIDEO_MP4

Видео
Идентификатор                            : 1
Формат                                   : AVC
Формат/Информация                        : Advanced Video Codec
Профиль формата                          : [email protected]
Параметр CABAC формата                   : Нет
Параметр ReFrames формата                : 5 кадров
Идентификатор кодека                     : avc1
Идентификатор кодека/Информация          : Advanced Video Coding
Продолжительность                        : 3 м. 45 с.
Битрейт                                  : 289 Кбит/сек
Максимальный битрейт                     : 1295 Кбит/сек
Ширина                                   : 512 пикселей
Высота                                   : 384 пикселя
Соотношение сторон                       : 4:3
Режим частоты кадров                     : Постоянный
Частота кадров                           : 30,000 кадров/сек
Цветовое пространство                    : YUV
Субдискретизация насыщенности            : 4:2:0
Битовая глубина                          : 8 бит
Тип развёртки                            : Прогрессивная
Бит/(Пиксели*Кадры)                      : 0.049
Размер потока                            : 7,78 Мбайт (60%)
Заголовок                                : Video
Библиотека кодирования                   : x264 core 116 r2057 0ba8a9c
Настройки программы                      : cabac=0 / ref=5 / deblock=1:0:0 / analyse=0x3:0x113 / me=hex / subme=9 / psy=1 / psy_rd=1.00:0.00 / mixed_ref=1 / me_range=16 / chroma_me=1 / trellis=1 / 8x8dct=1 / cqm=0 / deadzone=21,11 / fast_pskip=1 / chroma_qp_offset=-2 / threads=12 / sliced_threads=0 / nr=0 / decimate=1 / interlaced=0 / bluray_compat=0 / constrained_intra=0 / bframes=3 / b_pyramid=2 / b_adapt=1 / b_bias=0 / direct=1 / weightb=1 / open_gop=0 / weightp=2 / keyint=300 / keyint_min=30 / scenecut=40 / intra_refresh=0 / rc_lookahead=40 / rc=crf / mbtree=1 / crf=25.0 / qcomp=0.60 / qpmin=0 / qpmax=69 / qpstep=4 / vbv_maxrate=12500 / vbv_bufsize=12500 / crf_max=0.0 / nal_hrd=none / ip_ratio=1.40 / aq=1:1.00
Дата кодирования                         : UTC 2011-12-07 15:05:01
Дата пометки                             : UTC 2011-12-08 11:20:46
colour_range                             : Limited
Коэффициенты матрицы                     : BT.601

Аудио
Идентификатор                            : 2
Формат                                   : AAC
Формат/Информация                        : Advanced Audio Codec
Профиль формата                          : LC
Идентификатор кодека                     : 40
Продолжительность                        : 3 м. 45 с.
Вид битрейта                             : Переменный
Битрейт                                  : 192 Кбит/сек
Максимальный битрейт                     : 228 Кбит/сек
Каналы                                   : 2 канала
Расположение каналов                     : Front: L R
Частота                                  : 44,1 КГц
Частота кадров                           : 43,066 кадра/сек (1024 spf)
Метод сжатия                             : С потерями
Размер потока                            : 5,14 Мбайт (39%)
Дата кодирования                         : UTC 2011-12-08 11:20:46
Дата пометки                             : UTC 2011-12-08 11:20:46
Время раздачи: 24/7 (круглосуточно) (до появления первых 3-5 скачавших)
 
Не забывайте говорить Спасибо. Не уходите с раздачи!   
Торрент: Зарегистрирован [26 май 2016, 19:45] Для скачивания .torrent
необходима регистрация
Или скачать с помощью
MediaGet
Статус:
Проверен
 
.torrent скачан: 0 раз
Хэш: 71ca665d3f93ae5875eb615b0a2021482ed91434
Размер: 272.95 МБ (286 211 554 байт)
Стать Автором раздачи
 
 
Раздал: 100 ГБ
Скачал: 0 байт
Ратио: Seed.
Сообщения: 100000
Зарегистрирован: 09 апр 2015, 22:31


  • Похожие торренты
    Ответы
    Просмотры
    Последнее сообщение

Вернуться в Аниме и всё, что с ним связано

Ресурс не предоставляет электронные версии произведений, а занимается лишь коллекционированием и каталогизацией ссылок, присылаемых и публикуемых на форуме нашими читателями. Если вы являетесь правообладателем какого-либо представленного материала и не желаете чтобы ссылка на него находилась в нашем каталоге, свяжитесь с нами и мы незамедлительно удалим её. Файлы для обмена на трекере предоставлены пользователями сайта, и администрация не несёт ответственности за их содержание. Просьба не заливать файлы, защищенные авторскими правами, а также файлы нелегального содержания!
cron