(Rock, Heavy Metal) [CD] VA - The Many Faces of Iron Maiden - (3 CD Box Set) 2016, FLAC (image+.cue), lossless

 
 Статистика раздачи 
Размер: 1.28 ГБ   |  Зарегистрирован: 29 окт 2016, 21:21   |   .torrent скачан: 5 раз
Сидеров: 1  [ 0 байт/сек ]     Личеров: 0  [ 0 байт/сек ]  
  

(Rock, Heavy Metal) [CD] VA - The Many Faces of Iron Maiden - (3 CD Box Set) 2016, FLAC (image+.cue), lossless

Сообщение aLaVodka » 29 окт 2016, 21:21

The Many Faces of Iron Maiden

Жанр: Rock, Heavy Metal
Носитель: CD
Страна-производитель диска (релиза): Mexico
Год издания: 2016
Издатель (лейбл): Music Brokers
Номер по каталогу: MBB 7234
Аудиокодек: FLAC (*.flac)
Тип рипа: image+.cue
Битрейт аудио: lossless
Продолжительность: 02:42:27
Источник (релизер): Boris1
Наличие сканов в содержимом раздачи: да
#7701. Insanity Addicts - Slammer (Produced By Steve Harris)
02. All Hell Breaks Loose - Black Star Riders (Produced By Kevin Shirley)
03. Iron Maiden - Paul Di´anno
04. Killers - Paul Di´anno
05. Phantom Of The Opera - Paul Di´anno
06. Back Street Lovers - Stratus Feat Clive Burr
07. Wrathchild - Paul Di´anno
08. Murders In The Rue Morgue - Paul Di´anno
09. Bring The Hammer Down - Slammer (Produced By Steve Harris)
10. Sunbeam - Ian Gillan Band Feat Janick Gers
11. Running Free - Paul Di´anno
12. Remember Tomorrow - Paul Di´anno
13. Even If It Takes - Stratus Feat Clive Burr
Код: Выделить всё
Exact Audio Copy V1.0 beta 3 from 29. August 2011

EAC extraction logfile from 22. October 2016, 3:18

Various Artists / The Many Faces Of Iron Maiden (CD1)

Used drive  : PIONEER BD-RW   BDR-TD03   Adapter: 0  ID: 1

Read mode               : Secure
Utilize accurate stream : Yes
Defeat audio cache      : Yes
Make use of C2 pointers : No

Read offset correction                      : 667
Overread into Lead-In and Lead-Out          : No
Fill up missing offset samples with silence : Yes
Delete leading and trailing silent blocks   : No
Null samples used in CRC calculations       : Yes
Used interface                              : Native Win32 interface for Win NT & 2000

Used output format              : User Defined Encoder
Selected bitrate                : 768 kBit/s
Quality                         : High
Add ID3 tag                     : No
Command line compressor         : C:\Program Files (x86)\Exact Audio Copy\FLAC\FLAC.EXE
Additional command line options : -6 -V -T "ARTIST=%artist%" -T "TITLE=%title%" -T "ALBUM=%albumtitle%" -T "DATE=%year%" -T "TRACKNUMBER=%tracknr%" -T "GENRE=%genre%" -T "COMMENT=%comment%" -T "BAND=%albuminterpret%" -T "ALBUMARTIST=%albuminterpret%" -T "COMPOSER=%composer%" %haslyrics%--tag-from-file=LYRICS="%lyricsfile%"%haslyrics% -T "DISCNUMBER=%cdnumber%" -T "TOTALDISCS=%totalcds%" -T "TOTALTRACKS=%numtracks%" %hascover%--picture="%coverfile%"%hascover% %source% -o %dest%

TOC of the extracted CD

     Track |   Start  |  Length  | Start sector | End sector
    ---------------------------------------------------------
        1  |  0:00.00 |  4:23.19 |         0    |    19743
        2  |  4:23.19 |  4:14.57 |     19744    |    38850
        3  |  8:38.01 |  3:45.47 |     38851    |    55772
        4  | 12:23.48 |  5:05.66 |     55773    |    78713
        5  | 17:29.39 |  6:50.19 |     78714    |   109482
        6  | 24:19.58 |  3:48.19 |    109483    |   126601
        7  | 28:08.02 |  2:52.29 |    126602    |   139530
        8  | 31:00.31 |  4:14.38 |    139531    |   158618
        9  | 35:14.69 |  6:01.10 |    158619    |   185703
       10  | 41:16.04 |  4:11.38 |    185704    |   204566
       11  | 45:27.42 |  3:09.00 |    204567    |   218741
       12  | 48:36.42 |  5:23.38 |    218742    |   243004
       13  | 54:00.05 |  4:25.47 |    243005    |   262926

Range status and errors

Selected range

     Filename C:\Users\Deris\Desktop\kpnemo.eu\TriirMai\CD1\Various Artists - The Many Faces Of Iron Maiden (CD1).wav

     Peak level 100.0 %
     Extraction speed 4.9 X
     Range quality 100.0 %
     Test CRC AB72D2FD
     Copy CRC AB72D2FD
     Copy OK

No errors occurred

AccurateRip summary

Track  1  not present in database
Track  2  not present in database
Track  3  not present in database
Track  4  not present in database
Track  5  not present in database
Track  6  not present in database
Track  7  not present in database
Track  8  not present in database
Track  9  not present in database
Track 10  not present in database
Track 11  not present in database
Track 12  not present in database
Track 13  not present in database

None of the tracks are present in the AccurateRip database

End of status report

---- CUETools DB Plugin V2.1.3

[CTDB TOCID: ZO.GWHqKv7WS6SOROYDKvzBEKRQ-] disk not present in database, Submit result: ZO.GWHqKv7WS6SOROYDKvzBEKRQ- has been uploaded

==== Log checksum EFD95711B17270AECDA0495D0BF4313869C4BB204F94DA3D536395F88BCDF6AC ====
Код: Выделить всё
REM GENRE "Heavy Metal"
REM DATE 2016
REM DISCID AC0DB10D
REM COMMENT "ExactAudioCopy v1.0b3"
PERFORMER "Various Artists"
TITLE "The Many Faces Of Iron Maiden (CD1)"
FILE "Various Artists - The Many Faces Of Iron Maiden (CD1).flac" WAVE
  TRACK 01 AUDIO
    TITLE "Insanity Addicts"
    PERFORMER "Slammer (Produced by Steve Harris)"
    INDEX 01 00:00:00
  TRACK 02 AUDIO
    TITLE "All Hell Breaks Loose"
    PERFORMER "Black Star Riders (Produced by Kevin Shirley)"
    INDEX 01 04:23:19
  TRACK 03 AUDIO
    TITLE "Iron Maiden"
    PERFORMER "Paul DiґAnno"
    INDEX 01 08:38:01
  TRACK 04 AUDIO
    TITLE "Killers"
    PERFORMER "Paul DiґAnno"
    INDEX 01 12:23:48
  TRACK 05 AUDIO
    TITLE "Phantom Of The Opera"
    PERFORMER "Paul DiґAnno"
    INDEX 01 17:29:39
  TRACK 06 AUDIO
    TITLE "Back Street Lovers"
    PERFORMER "Stratus feat Clive Burr"
    INDEX 01 24:19:58
  TRACK 07 AUDIO
    TITLE "Wrathchild"
    PERFORMER "Paul DiґAnno"
    INDEX 01 28:08:02
  TRACK 08 AUDIO
    TITLE "Murders In The Rue Morgue"
    PERFORMER "Paul DiґAnno"
    INDEX 01 31:00:31
  TRACK 09 AUDIO
    TITLE "Bring The Hammer Down"
    PERFORMER "Slammer (Produced by Steve Harris)"
    INDEX 01 35:14:69
  TRACK 10 AUDIO
    TITLE "Sunbeam"
    PERFORMER "Ian Gillan Band feat Janick Gers"
    INDEX 01 41:16:04
  TRACK 11 AUDIO
    TITLE "Running Free"
    PERFORMER "Paul DiґAnno"
    INDEX 01 45:27:42
  TRACK 12 AUDIO
    TITLE "Remember Tomorrow"
    PERFORMER "Paul DiґAnno"
    INDEX 01 48:36:42
  TRACK 13 AUDIO
    TITLE "Even If It Takes"
    PERFORMER "Stratus feat Clive Burr"
    INDEX 01 54:00:05
Код: Выделить всё
foobar2000 1.2.4 / Замер динамического диапазона (DR) 1.1.1
Дата отчёта:  2016-10-22 03:25:40

--------------------------------------------------------------------------------
Анализ:   Black Star Riders (Produced by Kevin Shirley) / The Many Faces Of Iron Maiden (CD1) (1)
          Ian Gillan Band feat Janick Gers / The Many Faces Of Iron Maiden (CD1) (2)
--------------------------------------------------------------------------------

DR         Пики         RMS           Продолжительность трека
--------------------------------------------------------------------------------
DR8        0.00 дБ    -8.58 дБ      4:15 02-All Hell Breaks Loose
DR6        0.00 дБ    -7.80 дБ      4:12 10-Sunbeam
--------------------------------------------------------------------------------

Количество треков: 2
Реальные значения DR: DR7

Частота:   44100 Гц
Каналов:   2
Разрядность:   16
Битрейт:   1014 кбит/с
Кодек:   FLAC
================================================================================

--------------------------------------------------------------------------------
Анализ:   Paul Di´Anno / The Many Faces Of Iron Maiden (CD1)
--------------------------------------------------------------------------------

DR         Пики         RMS           Продолжительность трека
--------------------------------------------------------------------------------
DR6       -0.66 дБ    -8.11 дБ      3:46 03-Iron Maiden
DR6        0.00 дБ    -7.30 дБ      5:06 04-Killers
DR6       -1.27 дБ    -8.45 дБ      6:50 05-Phantom Of The Opera
DR6       -0.60 дБ    -7.10 дБ      2:52 07-Wrathchild
DR6       -0.08 дБ    -7.47 дБ      4:15 08-Murders In The Rue Morgue
DR5       -0.01 дБ    -6.61 дБ      3:09 11-Running Free
DR5        0.00 дБ    -6.72 дБ      5:24 12-Remember Tomorrow
--------------------------------------------------------------------------------

Количество треков: 7
Реальные значения DR: DR6

Частота:   44100 Гц
Каналов:   2
Разрядность:   16
Битрейт:   1014 кбит/с
Кодек:   FLAC
================================================================================

--------------------------------------------------------------------------------
Анализ:   Slammer (Produced by Steve Harris) / The Many Faces Of Iron Maiden (CD1)
--------------------------------------------------------------------------------

DR         Пики         RMS           Продолжительность трека
--------------------------------------------------------------------------------
DR6        0.00 дБ    -7.45 дБ      4:23 01-Insanity Addicts
DR6        0.00 дБ    -7.43 дБ      6:01 09-Bring The Hammer Down
--------------------------------------------------------------------------------

Количество треков: 2
Реальные значения DR: DR6

Частота:   44100 Гц
Каналов:   2
Разрядность:   16
Битрейт:   1014 кбит/с
Кодек:   FLAC
================================================================================

--------------------------------------------------------------------------------
Анализ:   Stratus feat Clive Burr / The Many Faces Of Iron Maiden (CD1)
--------------------------------------------------------------------------------

DR         Пики         RMS           Продолжительность трека
--------------------------------------------------------------------------------
DR7        0.00 дБ    -8.40 дБ      3:48 06-Back Street Lovers
DR7        0.00 дБ    -7.88 дБ      4:26 13-Even If It Takes
--------------------------------------------------------------------------------

Количество треков: 2
Реальные значения DR: DR7

Частота:   44100 Гц
Каналов:   2
Разрядность:   16
Битрейт:   1014 кбит/с
Кодек:   FLAC
================================================================================
#7701. The Number Of The Beast - Steve Grimmett
02. Run To The Hills - Steve Overland
03. The Trooper - Gary Barden
04. Fear Of The Dark - Bernie Shaw
05. Bring Your Daughter... To The Slaughter -Doogie White
06. 2 Minutes To Midnight - Steve Grimmett
07. Can I Play With Madness - Steve Overland
08. Hallowed Be My Name - Doogie White
09. Flight Of Icarus - Steve Overland
10. Aces High - Steve Grimmett
11. The Evil That Men Do - Doogie White
12. Run To The Hills - Vitamin String Quartet
Код: Выделить всё
Exact Audio Copy V1.0 beta 3 from 29. August 2011

EAC extraction logfile from 22. October 2016, 4:07

Various Artists / The Many Faces Of Iron Maiden (CD2)Their Greatest Hits

Used drive  : PIONEER BD-RW   BDR-TD03   Adapter: 0  ID: 1

Read mode               : Secure
Utilize accurate stream : Yes
Defeat audio cache      : Yes
Make use of C2 pointers : No

Read offset correction                      : 667
Overread into Lead-In and Lead-Out          : No
Fill up missing offset samples with silence : Yes
Delete leading and trailing silent blocks   : No
Null samples used in CRC calculations       : Yes
Used interface                              : Native Win32 interface for Win NT & 2000

Used output format              : User Defined Encoder
Selected bitrate                : 768 kBit/s
Quality                         : High
Add ID3 tag                     : No
Command line compressor         : C:\Program Files (x86)\Exact Audio Copy\FLAC\FLAC.EXE
Additional command line options : -6 -V -T "ARTIST=%artist%" -T "TITLE=%title%" -T "ALBUM=%albumtitle%" -T "DATE=%year%" -T "TRACKNUMBER=%tracknr%" -T "GENRE=%genre%" -T "COMMENT=%comment%" -T "BAND=%albuminterpret%" -T "ALBUMARTIST=%albuminterpret%" -T "COMPOSER=%composer%" %haslyrics%--tag-from-file=LYRICS="%lyricsfile%"%haslyrics% -T "DISCNUMBER=%cdnumber%" -T "TOTALDISCS=%totalcds%" -T "TOTALTRACKS=%numtracks%" %hascover%--picture="%coverfile%"%hascover% %source% -o %dest%

TOC of the extracted CD

     Track |   Start  |  Length  | Start sector | End sector
    ---------------------------------------------------------
        1  |  0:00.00 |  4:29.29 |         0    |    20203
        2  |  4:29.29 |  3:33.66 |     20204    |    36244
        3  |  8:03.20 |  4:05.47 |     36245    |    54666
        4  | 12:08.67 |  7:24.10 |     54667    |    87976
        5  | 19:33.02 |  4:45.19 |     87977    |   109370
        6  | 24:18.21 |  5:49.10 |    109371    |   135555
        7  | 30:07.31 |  3:22.38 |    135556    |   150743
        8  | 33:29.69 |  6:52.38 |    150744    |   181681
        9  | 40:22.32 |  3:41.29 |    181682    |   198285
       10  | 44:03.61 |  4:38.19 |    198286    |   219154
       11  | 48:42.05 |  4:23.10 |    219155    |   238889
       12  | 53:05.15 |  3:56.00 |    238890    |   256589

Range status and errors

Selected range

     Filename C:\Users\Deris\Desktop\kpnemo.eu\TriirMai\Cd2\Various Artists - The Many Faces Of Iron Maiden (CD2)Their Greatest Hits.wav

     Peak level 100.0 %
     Extraction speed 4.9 X
     Range quality 100.0 %
     Test CRC DC02FB25
     Copy CRC DC02FB25
     Copy OK

No errors occurred

AccurateRip summary

Track  1  not present in database
Track  2  not present in database
Track  3  not present in database
Track  4  not present in database
Track  5  not present in database
Track  6  not present in database
Track  7  not present in database
Track  8  not present in database
Track  9  not present in database
Track 10  not present in database
Track 11  not present in database
Track 12  not present in database

None of the tracks are present in the AccurateRip database

End of status report

---- CUETools DB Plugin V2.1.3

[CTDB TOCID: 9V9ZvffsdCBhHMy86vb9pgUrfdY-] disk not present in database, Submit result: 9V9ZvffsdCBhHMy86vb9pgUrfdY- has been uploaded

==== Log checksum A4A0A10392AEC733D3F0A8A6DC5F697AD81E76A56DCE68B77C9F8634A83A6866 ====
Код: Выделить всё
REM GENRE "Heavy Metal"
REM DATE 2016
REM DISCID 970D5D0C
REM COMMENT "ExactAudioCopy v1.0b3"
PERFORMER "Various Artists"
TITLE "The Many Faces Of Iron Maiden (CD2)Their Greatest Hits"
FILE "Various Artists - The Many Faces Of Iron Maiden (CD2)Their Greatest Hits.flac" WAVE
  TRACK 01 AUDIO
    TITLE "The Number Of The Beast"
    PERFORMER "Steve Grimmett"
    INDEX 01 00:00:00
  TRACK 02 AUDIO
    TITLE "Run To The Hills"
    PERFORMER "Steve Overland"
    INDEX 01 04:29:29
  TRACK 03 AUDIO
    TITLE "The Trooper"
    PERFORMER "Gary Barden"
    INDEX 01 08:03:20
  TRACK 04 AUDIO
    TITLE "Fear Of The Dark"
    PERFORMER "Bernie Shaw"
    INDEX 01 12:08:67
  TRACK 05 AUDIO
    TITLE "Bring Your Daughter... To The Slaughter"
    PERFORMER "Doogie White"
    INDEX 01 19:33:02
  TRACK 06 AUDIO
    TITLE "2 Minutes To Midnight"
    PERFORMER "Steve Grimmett"
    INDEX 01 24:18:21
  TRACK 07 AUDIO
    TITLE "Can I Play With Madness"
    PERFORMER "Steve Overland"
    INDEX 01 30:07:31
  TRACK 08 AUDIO
    TITLE "Hallowed Be My Name"
    PERFORMER "Doogie White"
    INDEX 01 33:29:69
  TRACK 09 AUDIO
    TITLE "Flight Of Icarus"
    PERFORMER "Steve Overland"
    INDEX 01 40:22:32
  TRACK 10 AUDIO
    TITLE "Aces High"
    PERFORMER "Steve Grimmett"
    INDEX 01 44:03:61
  TRACK 11 AUDIO
    TITLE "The Evil That Men Do"
    PERFORMER "Doogie White"
    INDEX 01 48:42:05
  TRACK 12 AUDIO
    TITLE "Run To The Hills"
    PERFORMER "Vitamin String Quartet"
    INDEX 01 53:05:15
Код: Выделить всё
foobar2000 1.2.4 / Замер динамического диапазона (DR) 1.1.1
Дата отчёта:  2016-10-23 15:36:57

--------------------------------------------------------------------------------
Анализ:   Bernie Shaw / The Many Faces Of Iron Maiden (CD2)Their Greatest Hits (1)
          Doogie White / The Many Faces Of Iron Maiden (CD2)Their Greatest Hits (2-4)
--------------------------------------------------------------------------------

DR         Пики         RMS           Продолжительность трека
--------------------------------------------------------------------------------
DR5        0.00 дБ    -7.08 дБ      7:24 04-Fear Of The Dark
DR5        0.00 дБ    -6.28 дБ      4:45 05-Bring Your Daughter... To The Slaughter
DR6        0.00 дБ    -7.43 дБ      6:53 08-Hallowed Be My Name
DR6        0.00 дБ    -6.93 дБ      4:23 11-The Evil That Men Do
--------------------------------------------------------------------------------

Количество треков: 4
Реальные значения DR: DR5

Частота:   44100 Гц
Каналов:   2
Разрядность:   16
Битрейт:   1042 кбит/с
Кодек:   FLAC
================================================================================

--------------------------------------------------------------------------------
Статистика для:  03-The Trooper
Количество сэмплов: 10832136
Продолжительность: 4:06
--------------------------------------------------------------------------------

           Левый             Правый

Пики:                0.00 дБ     ---     -0.02 дБ
Средний RMS:              -6.75 дБ     ---     -7.08 дБ
DR канала:               5.83 дБ     ---      6.13 дБ
--------------------------------------------------------------------------------

Реальные значения DR: DR6

Частота:   44100 Гц
Каналов:   2
Разрядность:   16
Битрейт:   1042 кбит/с
Кодек:   FLAC
================================================================================
--------------------------------------------------------------------------------
Анализ:   Steve Grimmett / The Many Faces Of Iron Maiden (CD2)Their Greatest Hits
--------------------------------------------------------------------------------

DR         Пики         RMS           Продолжительность трека
--------------------------------------------------------------------------------
DR5        0.00 дБ    -6.49 дБ      4:29 01-The Number Of The Beast
DR5       -0.30 дБ    -6.53 дБ      5:49 06-2 Minutes To Midnight
DR4        0.00 дБ    -5.60 дБ      4:38 10-Aces High
--------------------------------------------------------------------------------

Количество треков: 3
Реальные значения DR: DR5

Частота:   44100 Гц
Каналов:   2
Разрядность:   16
Битрейт:   1042 кбит/с
Кодек:   FLAC
================================================================================

--------------------------------------------------------------------------------
Анализ:   Steve Overland / The Many Faces Of Iron Maiden (CD2)Their Greatest Hits (1-3)
          Vitamin String Quartet / The Many Faces Of Iron Maiden (CD2)Their Greatest Hits (4)
--------------------------------------------------------------------------------

DR         Пики         RMS           Продолжительность трека
--------------------------------------------------------------------------------
DR5        0.00 дБ    -5.86 дБ      3:34 02-Run To The Hills
DR5       -0.02 дБ    -5.99 дБ      3:23 07-Can I Play With Madness
DR4        0.00 дБ    -4.85 дБ      3:41 09-Flight Of Icarus
DR7        0.00 дБ    -8.73 дБ      3:56 12-Run To The Hills
--------------------------------------------------------------------------------

Количество треков: 4
Реальные значения DR: DR5

Частота:   44100 Гц
Каналов:   2
Разрядность:   16
Битрейт:   1042 кбит/с
Кодек:   FLAC
================================================================================
#7701. If I Was You - Saxon
02. Hounds Of Hell - Split Beaver
03. Back Street Woman - Jaguar
04. Buried Alive - Quartz
05. All Riot Now - The Handsome Beasts
06. Battle Torn Heroes - Buffalo
07. Firebird - Twisted Ace
08. Ambitions - Dragster
09. Calling For You - Persian Risk
10. Music - Witchfinder General
11. Rock Lives On - Shiva
12. Need For Speed - Saxon
Код: Выделить всё
Exact Audio Copy V1.0 beta 3 from 29. August 2011

EAC extraction logfile from 23. October 2016, 16:32

Various Artists / The Many Faces Of Iron Maiden (CD3) The Scene

Used drive  : PIONEER BD-RW   BDR-TD03   Adapter: 0  ID: 1

Read mode               : Secure
Utilize accurate stream : Yes
Defeat audio cache      : Yes
Make use of C2 pointers : No

Read offset correction                      : 667
Overread into Lead-In and Lead-Out          : No
Fill up missing offset samples with silence : Yes
Delete leading and trailing silent blocks   : No
Null samples used in CRC calculations       : Yes
Used interface                              : Native Win32 interface for Win NT & 2000

Used output format              : User Defined Encoder
Selected bitrate                : 768 kBit/s
Quality                         : High
Add ID3 tag                     : No
Command line compressor         : C:\Program Files (x86)\Exact Audio Copy\FLAC\FLAC.EXE
Additional command line options : -6 -V -T "ARTIST=%artist%" -T "TITLE=%title%" -T "ALBUM=%albumtitle%" -T "DATE=%year%" -T "TRACKNUMBER=%tracknr%" -T "GENRE=%genre%" -T "COMMENT=%comment%" -T "BAND=%albuminterpret%" -T "ALBUMARTIST=%albuminterpret%" -T "COMPOSER=%composer%" %haslyrics%--tag-from-file=LYRICS="%lyricsfile%"%haslyrics% -T "DISCNUMBER=%cdnumber%" -T "TOTALDISCS=%totalcds%" -T "TOTALTRACKS=%numtracks%" %hascover%--picture="%coverfile%"%hascover% %source% -o %dest%

TOC of the extracted CD

     Track |   Start  |  Length  | Start sector | End sector
    ---------------------------------------------------------
        1  |  0:00.00 |  3:29.10 |         0    |    15684
        2  |  3:29.10 |  3:58.38 |     15685    |    33572
        3  |  7:27.48 |  4:36.66 |     33573    |    54338
        4  | 12:04.39 |  4:17.19 |     54339    |    73632
        5  | 16:21.58 |  4:21.19 |     73633    |    93226
        6  | 20:43.02 |  3:34.10 |     93227    |   109286
        7  | 24:17.12 |  3:56.47 |    109287    |   127033
        8  | 28:13.59 |  5:34.38 |    127034    |   152121
        9  | 33:48.22 |  3:59.38 |    152122    |   170084
       10  | 37:47.60 |  3:07.57 |    170085    |   184166
       11  | 40:55.42 |  2:48.57 |    184167    |   196823
       12  | 43:44.24 |  3:15.57 |    196824    |   211505

Range status and errors

Selected range

     Filename C:\Users\Deris\Desktop\kpnemo.eu\TriirMai\cD3\Various Artists - The Many Faces Of Iron Maiden (CD3) The Scene.wav

     Peak level 100.0 %
     Extraction speed 4.6 X
     Range quality 100.0 %
     Test CRC F6DA5EA3
     Copy CRC F6DA5EA3
     Copy OK

No errors occurred

AccurateRip summary

Track  1  not present in database
Track  2  not present in database
Track  3  not present in database
Track  4  not present in database
Track  5  not present in database
Track  6  not present in database
Track  7  not present in database
Track  8  not present in database
Track  9  not present in database
Track 10  not present in database
Track 11  not present in database
Track 12  not present in database

None of the tracks are present in the AccurateRip database

End of status report

---- CUETools DB Plugin V2.1.3

[CTDB TOCID: hLuDME_FDaQslUjDaCfgJi0244k-] disk not present in database, Submit result: database access error: The request was aborted: The request was canceled.

==== Log checksum BD093ED1B01431943B37ECA4BC5EE084D993B5931F49C21762F5FAAEF1EE9881 ====
Код: Выделить всё
REM GENRE "Heavy Metal"
REM DATE 2016
REM DISCID A80B040C
REM COMMENT "ExactAudioCopy v1.0b3"
PERFORMER "Various Artists"
TITLE "The Many Faces Of Iron Maiden (CD3) The Scene"
FILE "Various Artists - The Many Faces Of Iron Maiden (CD3) The Scene.flac" WAVE
  TRACK 01 AUDIO
    TITLE "If I Was You "
    PERFORMER "Saxon"
    INDEX 01 00:00:00
  TRACK 02 AUDIO
    TITLE "Hounds Of Hell"
    PERFORMER "Split Beaver"
    INDEX 01 03:29:10
  TRACK 03 AUDIO
    TITLE "Back Street Woman"
    PERFORMER "Jaguar"
    INDEX 01 07:27:48
  TRACK 04 AUDIO
    TITLE "Buried Alive"
    PERFORMER "Quartz"
    INDEX 01 12:04:39
  TRACK 05 AUDIO
    TITLE "All Riot Now"
    PERFORMER "The Handsome Beasts"
    INDEX 01 16:21:58
  TRACK 06 AUDIO
    TITLE "Battle Torn Heroes"
    PERFORMER "Buffalo"
    INDEX 01 20:43:02
  TRACK 07 AUDIO
    TITLE "Firebird"
    PERFORMER "Twisted Ace"
    INDEX 01 24:17:12
  TRACK 08 AUDIO
    TITLE "Ambitions"
    PERFORMER "Dragster"
    INDEX 01 28:13:59
  TRACK 09 AUDIO
    TITLE "Calling For You"
    PERFORMER "Persian Risk"
    INDEX 01 33:48:22
  TRACK 10 AUDIO
    TITLE "Music"
    PERFORMER "Witchfinder General"
    INDEX 01 37:47:60
  TRACK 11 AUDIO
    TITLE "Rock Lives On"
    PERFORMER "Shiva"
    INDEX 01 40:55:42
  TRACK 12 AUDIO
    TITLE "Need For Speed"
    PERFORMER "Saxon"
    INDEX 01 43:44:24
Код: Выделить всё
foobar2000 1.2.4 / Замер динамического диапазона (DR) 1.1.1
Дата отчёта:  2016-10-23 16:49:52

--------------------------------------------------------------------------------
Анализ:   Buffalo / The Many Faces Of Iron Maiden (CD3) The Scene (1)
          Dragster / The Many Faces Of Iron Maiden (CD3) The Scene (2)
--------------------------------------------------------------------------------

DR         Пики         RMS           Продолжительность трека
--------------------------------------------------------------------------------
DR5        0.00 дБ    -6.43 дБ      3:34 06-Battle Torn Heroes
DR8        0.00 дБ    -9.54 дБ      5:35 08-Ambitions
--------------------------------------------------------------------------------

Количество треков: 2
Реальные значения DR: DR6

Частота:   44100 Гц
Каналов:   2
Разрядность:   16
Битрейт:   1063 кбит/с
Кодек:   FLAC
================================================================================

--------------------------------------------------------------------------------
Анализ:   Jaguar / The Many Faces Of Iron Maiden (CD3) The Scene (1)
          Persian Risk / The Many Faces Of Iron Maiden (CD3) The Scene (2)
--------------------------------------------------------------------------------

DR         Пики         RMS           Продолжительность трека
--------------------------------------------------------------------------------
DR6        0.00 дБ    -7.43 дБ      4:37 03-Back Street Woman
DR7        0.00 дБ    -7.61 дБ      4:00 09-Calling For You
--------------------------------------------------------------------------------

Количество треков: 2
Реальные значения DR: DR6

Частота:   44100 Гц
Каналов:   2
Разрядность:   16
Битрейт:   1063 кбит/с
Кодек:   FLAC
================================================================================

--------------------------------------------------------------------------------
Статистика для:  04-Buried Alive
Количество сэмплов: 11344872
Продолжительность: 4:17
--------------------------------------------------------------------------------

           Левый             Правый

Пики:                0.00 дБ     ---      0.00 дБ
Средний RMS:              -4.70 дБ     ---     -6.08 дБ
DR канала:               3.96 дБ     ---      5.04 дБ
--------------------------------------------------------------------------------

Реальные значения DR: DR5

Частота:   44100 Гц
Каналов:   2
Разрядность:   16
Битрейт:   1063 кбит/с
Кодек:   FLAC
================================================================================
--------------------------------------------------------------------------------
Анализ:   Saxon / The Many Faces Of Iron Maiden (CD3) The Scene
--------------------------------------------------------------------------------

DR         Пики         RMS           Продолжительность трека
--------------------------------------------------------------------------------
DR5       -0.60 дБ    -6.94 дБ      3:29 01-If I Was You
DR5       -1.35 дБ    -7.44 дБ      3:16 12-Need For Speed
--------------------------------------------------------------------------------

Количество треков: 2
Реальные значения DR: DR5

Частота:   44100 Гц
Каналов:   2
Разрядность:   16
Битрейт:   1063 кбит/с
Кодек:   FLAC
================================================================================

--------------------------------------------------------------------------------
Статистика для:  11-Rock Lives On
Количество сэмплов: 7442316
Продолжительность: 2:49
--------------------------------------------------------------------------------

           Левый             Правый

Пики:                0.00 дБ     ---      0.00 дБ
Средний RMS:              -7.84 дБ     ---     -6.91 дБ
DR канала:               6.42 дБ     ---      5.61 дБ
--------------------------------------------------------------------------------

Реальные значения DR: DR6

Частота:   44100 Гц
Каналов:   2
Разрядность:   16
Битрейт:   1063 кбит/с
Кодек:   FLAC
================================================================================
--------------------------------------------------------------------------------
Анализ:   Split Beaver / The Many Faces Of Iron Maiden (CD3) The Scene (1)
          The Handsome Beasts / The Many Faces Of Iron Maiden (CD3) The Scene (2)
          Twisted Ace / The Many Faces Of Iron Maiden (CD3) The Scene (3)
          Witchfinder General / The Many Faces Of Iron Maiden (CD3) The Scene (4)
--------------------------------------------------------------------------------

DR         Пики         RMS           Продолжительность трека
--------------------------------------------------------------------------------
DR5        0.00 дБ    -5.70 дБ      3:59 02-Hounds Of Hell
DR7        0.00 дБ    -7.90 дБ      4:21 05-All Riot Now
DR6        0.00 дБ    -7.18 дБ      3:57 07-Firebird
DR7        0.00 дБ    -8.86 дБ      3:08 10-Music
--------------------------------------------------------------------------------

Количество треков: 4
Реальные значения DR: DR6

Частота:   44100 Гц
Каналов:   2
Разрядность:   16
Битрейт:   1063 кбит/с
Кодек:   FLAC
================================================================================
 
Не забывайте говорить Спасибо. Не уходите с раздачи!   
Торрент: Зарегистрирован [29 окт 2016, 21:21] Для скачивания .torrent
необходима регистрация
Или скачать с помощью
MediaGet
Статус:
Проверен
 
.torrent скачан: 5 раз
Хэш: ff0511c3bb18cf6f47eeb55ce7327b70004f884e
Размер: 1.28 ГБ (1 371 938 305 байт)
Стать Автором раздачи
 
 
Раздал: 100 ГБ
Скачал: 0 байт
Ратио: Seed.
Сообщения: 190297
Зарегистрирован: 09 апр 2015, 20:00


  • Похожие торренты
    Ответы
    Просмотры
    Последнее сообщение

Вернуться в Сборники "Зарубежный Metal" (lossless)

Ресурс не предоставляет электронные версии произведений, а занимается лишь коллекционированием и каталогизацией ссылок, присылаемых и публикуемых на форуме нашими читателями. Если вы являетесь правообладателем какого-либо представленного материала и не желаете чтобы ссылка на него находилась в нашем каталоге, свяжитесь с нами и мы незамедлительно удалим её. Файлы для обмена на трекере предоставлены пользователями сайта, и администрация не несёт ответственности за их содержание. Просьба не заливать файлы, защищенные авторскими правами, а также файлы нелегального содержания!
cron