(Thrash/Black/Death/Heavy Metal) [CD] VA - Hell Bent For Metal: Tribute To Judas Priest - 1999, FLAC (tracks+.cue), lossless

 
 Статистика раздачи 
Размер: 383.57 МБ   |  Зарегистрирован: 18 дек 2016, 23:44   |   .torrent скачан: 0 раз
Сидеров: 2  [ 0 байт/сек ]     Личеров: 0  [ 0 байт/сек ]  
  

(Thrash/Black/Death/Heavy Metal) [CD] VA - Hell Bent For Metal: Tribute To Judas Priest - 1999, FLAC (tracks+.cue), lossless

Сообщение aLaVodka » 18 дек 2016, 23:44

Hell Bent For Metal: Tribute To Judas Priest

Жанр: Thrash/Black/Death/Heavy Metal
Носитель: CD
Страна-производитель диска (релиза): US
Год издания: 1999
Издатель (лейбл): Dwell Records
Номер по каталогу: CD-1017
Аудиокодек: FLAC (*.flac)
Тип рипа: tracks+.cue
Битрейт аудио: lossless
Продолжительность: 00:52:23
Источник (релизер): Рип от bov1
Наличие сканов: да

Треклист:
1. Angelcorpse - Eat Me Alive (3:32)
2. Sanctorum - Hell Patrol (3:49)
3. Winter's Bane - Steeler (4:45)
4. Agent Steel - Beyond the Realms of Death (6:41)
5. Scary German Guy - Electric Eye (3:18)
6. Soulles - Hell Bent for Leather (2:35)
7. Equinox - The Ripper (2:55)
8. Aurora Borealis - Metal Meltdown (4:10)
9. Steel Prophet - Dreamer Deceiver (5:26)
10. Crematorium - Breaking the Law (2:04)
11. Prototype - The Sentinel (4:48)
12. Division - Desert Plains (4:00)
13. Vital Remains - You've Got Another Thing Comin' (4:42)
Код: Выделить всё
Exact Audio Copy V1.0 beta 1 from 15. November 2010

EAC extraction logfile from 20. April 2011, 1:09

Judas Priest / Hell Bent For Metal - Tribute To Judas Priest

Used drive  : HL-DT-STDVD-RAM GH22NP20   Adapter: 0  ID: 0

Read mode               : Secure
Utilize accurate stream : Yes
Defeat audio cache      : Yes
Make use of C2 pointers : No

Read offset correction                      : 102
Overread into Lead-In and Lead-Out          : No
Fill up missing offset samples with silence : Yes
Delete leading and trailing silent blocks   : Yes
Null samples used in CRC calculations       : No
Used interface                              : Native Win32 interface for Win NT & 2000
Gap handling                                : Appended to previous track

Used output format              : User Defined Encoder
Selected bitrate                : 1024 kBit/s
Quality                         : High
Add ID3 tag                     : No
Command line compressor         : C:\Program Files\Exact Audio Copy\Flac\flac.exe
Additional command line options : -6 -V -T "ARTIST=%a" -T "TITLE=%t" -T "ALBUM=%g" -T "DATE=%y" -T "TRACKNUMBER=%n" -T "GENRE=%m" -T "COMMENT=%e" %j--picture="%i"%j %s -o %d

TOC of the extracted CD

     Track |   Start  |  Length  | Start sector | End sector
    ---------------------------------------------------------
        1  |  0:00.00 |  3:35.30 |         0    |    16154
        2  |  3:35.30 |  3:52.32 |     16155    |    33586
        3  |  7:27.62 |  4:48.35 |     33587    |    55221
        4  | 12:16.22 |  6:43.63 |     55222    |    85509
        5  | 19:00.10 |  3:20.70 |     85510    |   100579
        6  | 22:21.05 |  2:37.45 |    100580    |   112399
        7  | 24:58.50 |  2:58.37 |    112400    |   125786
        8  | 27:57.12 |  4:13.00 |    125787    |   144761
        9  | 32:10.12 |  5:29.13 |    144762    |   169449
       10  | 37:39.25 |  2:07.20 |    169450    |   178994
       11  | 39:46.45 |  4:51.12 |    178995    |   200831
       12  | 44:37.57 |  4:03.70 |    200832    |   219126
       13  | 48:41.52 |  4:44.70 |    219127    |   240496

Track  1

     Filename C:\Hell Bent For Metal - Tribute To JUDAS PRIEST (2CD)\CD1\01. Judas Priest – 01. Angel Corpse , Eat me alive.wav

     Pre-gap length  0:00:02.00

     Peak level 95.5 %
     Extraction speed 1.5 X
     Track quality 100.0 %
     Test CRC 9A6DBB01
     Copy CRC 9A6DBB01
     Copy OK

Track  2

     Filename C:\Hell Bent For Metal - Tribute To JUDAS PRIEST (2CD)\CD1\02. Judas Priest – 02. Sanctorum , Hell Patrol.wav

     Pre-gap length  0:00:02.43

     Peak level 97.7 %
     Extraction speed 1.5 X
     Track quality 99.9 %
     Test CRC C21C1CE8
     Copy CRC C21C1CE8
     Copy OK

Track  3

     Filename C:\Hell Bent For Metal - Tribute To JUDAS PRIEST (2CD)\CD1\03. Judas Priest – 03. Winters Bane , Steeler.wav

     Pre-gap length  0:00:02.47

     Peak level 97.7 %
     Extraction speed 1.9 X
     Track quality 100.0 %
     Test CRC 8B739204
     Copy CRC 8B739204
     Copy OK

Track  4

     Filename C:\Hell Bent For Metal - Tribute To JUDAS PRIEST (2CD)\CD1\04. Judas Priest – 04. Agent Steel , Beyond the realms of death.wav

     Pre-gap length  0:00:02.47

     Peak level 92.2 %
     Extraction speed 2.3 X
     Track quality 100.0 %
     Test CRC 74909664
     Copy CRC 74909664
     Copy OK

Track  5

     Filename C:\Hell Bent For Metal - Tribute To JUDAS PRIEST (2CD)\CD1\05. Judas Priest – 05. Scary German Guy , Electric Eye.wav

     Pre-gap length  0:00:02.10

     Peak level 97.7 %
     Extraction speed 2.2 X
     Track quality 100.0 %
     Test CRC 7345BFFD
     Copy CRC 7345BFFD
     Copy OK

Track  6

     Filename C:\Hell Bent For Metal - Tribute To JUDAS PRIEST (2CD)\CD1\06. Judas Priest – 06. Soulles , Hell bent for leather.wav

     Pre-gap length  0:00:02.18

     Peak level 87.6 %
     Extraction speed 2.2 X
     Track quality 100.0 %
     Test CRC ECE4970C
     Copy CRC ECE4970C
     Copy OK

Track  7

     Filename C:\Hell Bent For Metal - Tribute To JUDAS PRIEST (2CD)\CD1\07. Judas Priest – 07. Equinox , The ripper.wav

     Pre-gap length  0:00:02.33

     Peak level 85.7 %
     Extraction speed 2.3 X
     Track quality 100.0 %
     Test CRC 66D1A0B2
     Copy CRC 66D1A0B2
     Copy OK

Track  8

     Filename C:\Hell Bent For Metal - Tribute To JUDAS PRIEST (2CD)\CD1\08. Judas Priest – 08. Aurora Borealis , Metal Meltdown.wav

     Pre-gap length  0:00:02.35

     Peak level 97.7 %
     Extraction speed 2.2 X
     Track quality 99.9 %
     Test CRC 92402113
     Copy CRC 92402113
     Copy OK

Track  9

     Filename C:\Hell Bent For Metal - Tribute To JUDAS PRIEST (2CD)\CD1\09. Judas Priest – 09. Steel Prophet , Dreamer deceiver.wav

     Pre-gap length  0:00:02.45

     Peak level 95.4 %
     Extraction speed 2.8 X
     Track quality 100.0 %
     Test CRC 4E9F8209
     Copy CRC 4E9F8209
     Copy OK

Track 10

     Filename C:\Hell Bent For Metal - Tribute To JUDAS PRIEST (2CD)\CD1\10. Judas Priest – 10. Crematorium , Breaking the law.wav

     Pre-gap length  0:00:02.55

     Peak level 97.7 %
     Extraction speed 2.5 X
     Track quality 100.0 %
     Test CRC 27ADA7A8
     Copy CRC 27ADA7A8
     Copy OK

Track 11

     Filename C:\Hell Bent For Metal - Tribute To JUDAS PRIEST (2CD)\CD1\11. Judas Priest – 11. Prototype , The sentinel.wav

     Pre-gap length  0:00:02.33

     Peak level 92.9 %
     Extraction speed 2.9 X
     Track quality 100.0 %
     Test CRC C4C8CD46
     Copy CRC C4C8CD46
     Copy OK

Track 12

     Filename C:\Hell Bent For Metal - Tribute To JUDAS PRIEST (2CD)\CD1\12. Judas Priest – 12. Division , Desert plains.wav

     Pre-gap length  0:00:02.42

     Peak level 97.7 %
     Extraction speed 3.0 X
     Track quality 100.0 %
     Test CRC ECF2E7F7
     Copy CRC ECF2E7F7
     Copy OK

Track 13

     Filename C:\Hell Bent For Metal - Tribute To JUDAS PRIEST (2CD)\CD1\13. Judas Priest – 13. Vital Remains , You've Got Another Thing Coming.wav

     Pre-gap length  0:00:02.55

     Peak level 97.7 %
     Extraction speed 2.8 X
     Track quality 99.9 %
     Test CRC 637FA303
     Copy CRC 637FA303
     Copy OK

No errors occurred

End of status report
Код: Выделить всё
REM DATE 1999
REM DISCID A50C630D
PERFORMER "Various Artists"
TITLE "Hell Bent for Metal: A Tribute to Judas Priest"
FILE "01. Angelcorpse - Eat Me Alive.wav" WAVE
  TRACK 01 AUDIO
    TITLE "Eat Me Alive"
    PERFORMER "Angelcorpse"
    INDEX 01 00:00:00
  TRACK 02 AUDIO
    TITLE "Hell Patrol"
    PERFORMER "Sanctorum"
    INDEX 00 03:29:57
FILE "02. Sanctorum - Hell Patrol.wav" WAVE
    INDEX 01 00:00:00
  TRACK 03 AUDIO
    TITLE "Steeler"
    PERFORMER "Winter's Bane"
    INDEX 00 03:47:18
FILE "03. Winter's Bane - Steeler.wav" WAVE
    INDEX 01 00:00:00
  TRACK 04 AUDIO
    TITLE "Beyond the Realms of Death"
    PERFORMER "Agent Steel"
    INDEX 00 04:43:16
FILE "04. Agent Steel - Beyond the Realms of Death.wav" WAVE
    INDEX 01 00:00:00
  TRACK 05 AUDIO
    TITLE "Electric Eye"
    PERFORMER "Scary German Guy"
    INDEX 00 06:39:34
FILE "05. Scary German Guy - Electric Eye.wav" WAVE
    INDEX 01 00:00:00
  TRACK 06 AUDIO
    TITLE "Hell Bent for Leather"
    PERFORMER "Soulles"
    INDEX 00 03:16:31
FILE "06. Soulles - Hell Bent for Leather.wav" WAVE
    INDEX 01 00:00:00
  TRACK 07 AUDIO
    TITLE "The Ripper"
    PERFORMER "Equinox"
    INDEX 00 02:32:51
FILE "07. Equinox - The Ripper.wav" WAVE
    INDEX 01 00:00:00
  TRACK 08 AUDIO
    TITLE "Metal Meltdown"
    PERFORMER "Aurora Borealis"
    INDEX 00 02:53:38
FILE "08. Aurora Borealis - Metal Meltdown.wav" WAVE
    INDEX 01 00:00:00
  TRACK 09 AUDIO
    TITLE "Dreamer Deceiver"
    PERFORMER "Steel Prophet"
    INDEX 00 04:07:63
FILE "09. Steel Prophet - Dreamer Deceiver.wav" WAVE
    INDEX 01 00:00:00
  TRACK 10 AUDIO
    TITLE "Breaking the Law"
    PERFORMER "Crematorium"
    INDEX 00 05:23:39
FILE "10. Crematorium - Breaking the Law.wav" WAVE
    INDEX 01 00:00:00
  TRACK 11 AUDIO
    TITLE "The Sentinel"
    PERFORMER "Prototype"
    INDEX 00 02:02:32
FILE "11. Prototype - The Sentinel.wav" WAVE
    INDEX 01 00:00:00
  TRACK 12 AUDIO
    TITLE "Desert Plains"
    PERFORMER "Division"
    INDEX 00 04:45:61
FILE "12. Division - Desert Plains.wav" WAVE
    INDEX 01 00:00:00
  TRACK 13 AUDIO
    TITLE "You've Got Another Thing Comin'"
    PERFORMER "Vital Remains"
    INDEX 00 03:58:33
FILE "13. Vital Remains - You've Got Another Thing Comin'.wav" WAVE
    INDEX 01 00:00:00
Код: Выделить всё
AUDIOCHECKER v2.0 beta (build 457) - by Dester - [email protected]
~~~~~~~~~~~~~~~~~~~~~~~~~~~~~~~~~~

Started at: воскресенье, 18. 12. 2016. - 23:20.17
13 files found

01 -===- C:\Various Artists - 1999 - Hell Bent for Metal- A Tribute to Judas Priest\01. Angel Corpse - Eat Me Alive.flac
  Extracted successfully
  Conclusion: this track is CDDA with probability 100%
  Tempfile successfully deleted.

02 -===- C:\Various Artists - 1999 - Hell Bent for Metal- A Tribute to Judas Priest\02. Sanctorum - Hell Patrol.flac
  Extracted successfully
  Conclusion: this track is CDDA with probability 100%
  Tempfile successfully deleted.

03 -===- C:\Various Artists - 1999 - Hell Bent for Metal- A Tribute to Judas Priest\03. Winters Bane - Steeler.flac
  Extracted successfully
  Conclusion: this track is CDDA with probability 99%
  Tempfile successfully deleted.

04 -===- C:\Various Artists - 1999 - Hell Bent for Metal- A Tribute to Judas Priest\04. Agent Steel - Beyond The Realms Of Death.flac
  Extracted successfully
  Conclusion: this track is CDDA with probability 99%
  Tempfile successfully deleted.

05 -===- C:\Various Artists - 1999 - Hell Bent for Metal- A Tribute to Judas Priest\05. Scary German Guy - Electric Eye.flac
  Extracted successfully
  Conclusion: this track is CDDA with probability 100%
  Tempfile successfully deleted.

06 -===- C:\Various Artists - 1999 - Hell Bent for Metal- A Tribute to Judas Priest\06. Soulles - Hell Bent For Leather.flac
  Extracted successfully
  Conclusion: this track is CDDA with probability 100%
  Tempfile successfully deleted.

07 -===- C:\Various Artists - 1999 - Hell Bent for Metal- A Tribute to Judas Priest\07. Equinox - The Ripper.flac
  Extracted successfully
  Conclusion: this track is CDDA with probability 99%
  Tempfile successfully deleted.

08 -===- C:\Various Artists - 1999 - Hell Bent for Metal- A Tribute to Judas Priest\08. Aurora Borealis - Metal Meltdown.flac
  Extracted successfully
  Conclusion: this track is CDDA with probability 100%
  Tempfile successfully deleted.

09 -===- C:\Various Artists - 1999 - Hell Bent for Metal- A Tribute to Judas Priest\09. Steel Prophet - Dreamer Deceiver.flac
  Extracted successfully
  Conclusion: this track is CDDA with probability 100%
  Tempfile successfully deleted.

10 -===- C:\Various Artists - 1999 - Hell Bent for Metal- A Tribute to Judas Priest\10. Crematorium - Breaking The Law.flac
  Extracted successfully
  Conclusion: this track is CDDA with probability 100%
  Tempfile successfully deleted.

11 -===- C:\Various Artists - 1999 - Hell Bent for Metal- A Tribute to Judas Priest\11. Prototype - The Sentinel.flac
  Extracted successfully
  Conclusion: this track is CDDA with probability 100%
  Tempfile successfully deleted.

12 -===- C:\Various Artists - 1999 - Hell Bent for Metal- A Tribute to Judas Priest\12. Division - Desert Plains.flac
  Extracted successfully
  Conclusion: this track is CDDA with probability 100%
  Tempfile successfully deleted.

13 -===- C:\Various Artists - 1999 - Hell Bent for Metal- A Tribute to Judas Priest\13. Vital Remains - You've Got Another Thing Coming.flac
  Extracted successfully
  Conclusion: this track is CDDA with probability 100%
  Tempfile successfully deleted.

Finished at: воскресенье, 18. 12. 2016. - 23:29.54 (operation time: 0:09.37)
 
Не забывайте говорить Спасибо. Не уходите с раздачи!   
Торрент: Зарегистрирован [18 дек 2016, 23:44] Для скачивания .torrent
необходима регистрация
Или скачать с помощью
MediaGet
Статус:
Проверен
 
.torrent скачан: 0 раз
Хэш: 95d0f96f246a5a1da168c4a7028976b608f600f6
Размер: 383.57 МБ (402 206 619 байт)
Стать Автором раздачи
 
 
Раздал: 100 ГБ
Скачал: 0 байт
Ратио: Seed.
Сообщения: 189733
Зарегистрирован: 09 апр 2015, 20:00


  • Похожие торренты
    Ответы
    Просмотры
    Последнее сообщение

Вернуться в Сборники "Зарубежный Metal" (lossless)

Ресурс не предоставляет электронные версии произведений, а занимается лишь коллекционированием и каталогизацией ссылок, присылаемых и публикуемых на форуме нашими читателями. Если вы являетесь правообладателем какого-либо представленного материала и не желаете чтобы ссылка на него находилась в нашем каталоге, свяжитесь с нами и мы незамедлительно удалим её. Файлы для обмена на трекере предоставлены пользователями сайта, и администрация не несёт ответственности за их содержание. Просьба не заливать файлы, защищенные авторскими правами, а также файлы нелегального содержания!
cron