Невеста (Святослав Подгаевский) [2017, ужасы, триллер, WEB-DLRip]

 
 Статистика раздачи 
Размер: 699.44 МБ   |  Зарегистрирован: 18 фев 2017, 01:40   |   .torrent скачан: 0 раз
Сидеров: 28  [ 0 байт/сек ]     Личеров: 9  [ 0 байт/сек ]  
  

Невеста (Святослав Подгаевский) [2017, ужасы, триллер, WEB-DLRip]

Сообщение Lester » 18 фев 2017, 01:40

Невеста


Жанр: ужасы, триллер
Год выпуска: 2017
Продолжительность: 01:31:36

Режиссёр: Святослав Подгаевский

В ролях: Виктория Агалакова, Вячеслав Чепурченко, Александра Ребенок, Игорь Хрипунов, Анастасия Акатова, Виктор Соловьев, Мария Арнаут, Лада Чуровская

Описание: После свадьбы Настя уговаривает мужа взять её с собой к его родственникам, которые живут в маленьком, почти заброшенном городке. Но скоро начинает сожалеть о своей просьбе. Семья Вани хочет провести таинственный свадебный обряд по своим традициям, и Настю начинают пугать страшные сны и непонятные предчувствия. Попытка понять что происходит, приводит девушку к жуткой находке — шкатулке с фотографиями мертвых людей.

Сэмпл: http://multi-up.com/1141247

Качество видео: WEB-DLRip
Формат видео: AVI

Видео: 720x400 (1.80:1), 25 fps, XviD build 50 ~929 kbps avg, 0.13 bit/pixel
Аудио: 48 kHz, AC3 Dolby Digital, 2/0 (L,R) ch, ~128 kbps [iTunes]
Format : AVI
Format/Info : Audio Video Interleave
File size : 699 MiB
Duration : 1 h 31 min
Overall bit rate : 1 068 kb/s
Writing application : VirtualDubMod 1.5.10.2 (build 2540/release)
Writing library : VirtualDubMod build 2540/release

Video
ID : 0
Format : MPEG-4 Visual
Format profile : Advanced [email protected]
Format settings, BVOP : 2
Format settings, QPel : No
Format settings, GMC : No warppoints
Format settings, Matrix : Default (MPEG)
Codec ID : XVID
Codec ID/Hint : XviD
Duration : 1 h 31 min
Bit rate : 930 kb/s
Width : 720 pixels
Height : 400 pixels
Display aspect ratio : 16:9
Frame rate : 25.000 FPS
Color space : YUV
Chroma subsampling : 4:2:0
Bit depth : 8 bits
Scan type : Progressive
Compression mode : Lossy
Bits/(Pixel*Frame) : 0.129
Stream size : 609 MiB (87%)
Writing library : XviD 1.2.1 (UTC 2008-12-04)

Audio
ID : 1
Format : AC-3
Format/Info : Audio Coding 3
Mode extension : CM (complete main)
Format settings, Endianness : Big
Codec ID : 2000
Duration : 1 h 31 min
Bit rate mode : Constant
Bit rate : 128 kb/s
Channel(s) : 2 channels
Channel positions : Front: L R
Sampling rate : 48.0 kHz
Frame rate : 31.250 FPS (1536 spf)
Compression mode : Lossy
Stream size : 83.9 MiB (12%)
Alignment : Split accross interleaves
Interleave, duration : 40 ms (1.00 video frame)
Interleave, preload duration : 500 ms
 
Не забывайте говорить Спасибо. Не уходите с раздачи!   
Торрент: Зарегистрирован [18 фев 2017, 01:40] Для скачивания .torrent
необходима регистрация
Или скачать с помощью
MediaGet
Статус:
Проверен
 
.torrent скачан: 0 раз
Хэш: 988a1a5459d6ff350e71505721bacc6ccace077d
Размер: 699.44 МБ (733 413 376 байт)
Стать Автором раздачи
 
 
Раздал: 100 ГБ
Скачал: 0 байт
Ратио: Seed.
Сообщения: 111207
Зарегистрирован: 09 апр 2015, 23:00


  • Похожие торренты
    Ответы
    Просмотры
    Последнее сообщение

Вернуться в Отечественное кино

Ресурс не предоставляет электронные версии произведений, а занимается лишь коллекционированием и каталогизацией ссылок, присылаемых и публикуемых на форуме нашими читателями. Если вы являетесь правообладателем какого-либо представленного материала и не желаете чтобы ссылка на него находилась в нашем каталоге, свяжитесь с нами и мы незамедлительно удалим её. Файлы для обмена на трекере предоставлены пользователями сайта, и администрация не несёт ответственности за их содержание. Просьба не заливать файлы, защищенные авторскими правами, а также файлы нелегального содержания!
cron