Одноклассницы: Новый поворот (Дмитрий Суворов) [2017, Комедия, WEB-DLRip]

 
 Статистика раздачи 
Размер: 741.26 МБ   |  Зарегистрирован: 23 мар 2017, 17:14   |   .torrent скачан: 2 раз
Сидеров: 30  [ 0 байт/сек ]     Личеров: 10  [ 0 байт/сек ]  
  

Одноклассницы: Новый поворот (Дмитрий Суворов) [2017, Комедия, WEB-DLRip]

Сообщение Lester » 23 мар 2017, 17:14

Одноклассницы: Новый поворот

Жанр: Комедия
Год выпуска: 2017
Продолжительность: 01:16:05

Режиссёр: Дмитрий Суворов

В ролях: Светлана Ходченкова, Екатерина Вилкова, Ольга Кузьмина, Валентина Мазунина, Дмитрий Хрусталёв, Илья Любимов, Арарат Кещян, Антон Макарский, Роман Юнусов, Данила Якушев

Описание: Спустя год после свадьбы Кати, обручальное кольцо спешит примерить Даша, нашедшая свою судьбу в лице банковского работника «короля кредитов» Миши.
Но как водится, гладко все не бывает. Смогут ли лучшие подруги спасти свадьбу Даши?

Сэмпл: http://multi-up.com/1146624

Качество видео: WEB-DLRip
Формат видео: AVI

Видео: 688x288 (2.39:1), 24 fps, XviD build 73 ~1224 kbps avg, 0.26 bit/pixel
Аудио: 48 kHz, MPEG Layer 3, 2 ch, ~128.00 kbps avg
Формат : AVI
Формат/Информация : Audio Video Interleave
Размер файла : 741 Мбайт
Продолжительность : 1 ч. 16 м.
Общий поток : 1362 Кбит/сек
Программа кодирования : VirtualDubMod 1.5.10.3 | www.virtualdub-fr.org || (build 2550/release)
Библиотека кодирования : VirtualDubMod build 2550/release

Видео
Идентификатор : 0
Формат : MPEG-4 Visual
Профиль формата : Advanced [email protected]
Параметр BVOP формата : 1
Параметр QPel формата : Нет
Параметр GMC формата : Без точки перехода
Параметр матрицы формата : Выборочная
Идентификатор кодека : XVID
Идентификатор кодека/Подсказка : XviD
Продолжительность : 1 ч. 16 м.
Битрейт : 1225 Кбит/сек
Ширина : 688 пикселей
Высота : 288 пикселей
Соотношение сторон : 2,40:1
Частота кадров : 24,000 кадра/сек
Цветовое пространство : YUV
Субдискретизация насыщенности : 4:2:0
Битовая глубина : 8 бит
Тип развёртки : Прогрессивная
Метод сжатия : С потерями
Бит/(Пиксели*Кадры) : 0.258
Размер потока : 667 Мбайт (90%)
Библиотека кодирования : XviD 73

Аудио
Идентификатор : 1
Формат : MPEG Audio
Версия формата : Version 1
Профиль формата : Layer 3
Идентификатор кодека : 55
Идентификатор кодека/Подсказка : MP3
Продолжительность : 1 ч. 16 м.
Вид битрейта : Постоянный
Битрейт : 128 Кбит/сек
Каналы : 2 канала
Частота : 48,0 КГц
Метод сжатия : С потерями
Размер потока : 69,7 Мбайт (9%)
Выравнивание : Соединение по промежуткам
Продолжительность промежутка : 42 мс. (1,00 видеокадр)
Время предзагрузки промежутка : 504 мс.
Библиотека кодирования : LAME3.99r
Настройки программы : -m s -V 4 -q 2 -lowpass 17 -b 128
 
Не забывайте говорить Спасибо. Не уходите с раздачи!   
Торрент: Зарегистрирован [23 мар 2017, 17:14] Для скачивания .torrent
необходима регистрация
Или скачать с помощью
MediaGet
Статус:
Проверен
 
.torrent скачан: 2 раз
Хэш: 1566386d0c700a2a336e1da05bbfaecfad4ad855
Размер: 741.26 МБ (777 271 296 байт)
Стать Автором раздачи
 
 
Раздал: 100 ГБ
Скачал: 0 байт
Ратио: Seed.
Сообщения: 113170
Зарегистрирован: 09 апр 2015, 23:00


  • Похожие торренты
    Ответы
    Просмотры
    Последнее сообщение

Вернуться в Отечественное кино

Ресурс не предоставляет электронные версии произведений, а занимается лишь коллекционированием и каталогизацией ссылок, присылаемых и публикуемых на форуме нашими читателями. Если вы являетесь правообладателем какого-либо представленного материала и не желаете чтобы ссылка на него находилась в нашем каталоге, свяжитесь с нами и мы незамедлительно удалим её. Файлы для обмена на трекере предоставлены пользователями сайта, и администрация не несёт ответственности за их содержание. Просьба не заливать файлы, защищенные авторскими правами, а также файлы нелегального содержания!
cron