Любовь прет-а-порте (2017) WEB-DLRip-AVC от OlLanDGroup | iTunes

 
 Статистика раздачи 
Размер: 744.97 МБ   |  Зарегистрирован: 30 мар 2017, 22:56   |   .torrent скачан: 1520 раз
Сидеров: 306  [ 0 байт/сек ]     Личеров: 52  [ 0 байт/сек ]  
  

Любовь прет-а-порте (2017) WEB-DLRip-AVC от OlLanDGroup | iTunes

Сообщение apple2000 » 30 мар 2017, 22:56

Любовь прет-а-порте
«На что ты готов ради любви?»



Год выпуска: 2017
Страна: Россия, Италия
Производство: ОДА-Фильм
Жанр: Комедия

Режиссёр: Макс Нардари
В ролях: Ольга Погодина, Андреа Прети, Лариса Удовиченко, Джанкарло Джаннини, Паоло Контичини, Нино Фрассика, Владислав Лисовец, Михаил Химичев, Пьетро Де Силва, Тоска Д’Аквино

Перевод: Не требуется
Субтитры: Нет
Описание: Он - знойный римский ловелас, избалованный сынок богатого папочки. Она - красавица, одинокая москвичка, которая всю жизнь ждала того, единственного. Он всю жизнь флиртовал, играл, блефовал. Она трудилась, презирая ложь и компромиссы. Одна короткая встреча в Риме запутала их жизни в яркий клубок надежд, обломов и страсти. Он стал для неё тем, кого она готова была полюбить, но не могла... Она стала для него той, ради которой стоило лгать, как никогда в жизни... А чего не сделаешь ради любви?..



Релиз от: Rip by:

Качество: WEB-DLRip-AVC
Продолжительность: 01:21:44

Формат: MKV
Видео кодек: MPEG-4 AVC
Аудио кодек: AC3
Видео: 736x400 (2.40:1), 24.000 fps, x264 ~1078 kbps avg, 0.146 bit/pixel
Аудио: 48 kHz, AC3 Dolby Digital, 2 (L,R) ch, ~192.00 kbps avg | RUS (iTunes)

Дата премьеры (РФ): 2 марта 2017, «Парадиз»

Общее
Уникальный идентификатор : 171959761852793744505028503290245176382 (0x815E3ED6593AB0D589C0D155B8425C3E)
Полное имя : D:Vurdalaki.2017.WEB-DLRip(AVC).OlLanDGroup.mkv
Формат : Matroska
Версия формата : Version 2
Размер файла : 745 Мбайт
Продолжительность : 1 ч. 21 м.
Общий поток : 1274 Кбит/сек
Название фильма : Vurdalaki.2017 #TorpedoUK#
Дата кодирования : UTC 2017-03-23 08:32:58
Программа кодирования : mkvmerge v7.8.0 ('River Man') 32bit built on Apr 3 2015 12:11:22
Библиотека кодирования : libebml v1.3.1 + libmatroska v1.4.2

Видео
Идентификатор : 1
Формат : AVC
Формат/Информация : Advanced Video Codec
Профиль формата : [email protected]
Параметр CABAC формата : Да
Параметр ReFrames формата : 10 кадров
Идентификатор кодека : V_MPEG4/ISO/AVC
Продолжительность : 1 ч. 21 м.
Битрейт : 1081 Кбит/сек
Ширина : 720 пикселей
Высота : 302 пикселя
Соотношение сторон : 2,40:1
Режим частоты кадров : Постоянный
Частота кадров : 24,000 кадра/сек
Цветовое пространство : YUV
Субдискретизация насыщенности : 4:2:0
Битовая глубина : 8 бит
Тип развёртки : Прогрессивная
Бит/(Пиксели*Кадры) : 0.207
Размер потока : 618 Мбайт (83%)
Библиотека кодирования : x264 core 146 r2538 121396c
Настройки программы : cabac=1 / ref=10 / deblock=1:-3:-3 / analyse=0x3:0x133 / me=umh / subme=10 / psy=1 / psy_rd=1.00:0.07 / mixed_ref=1 / me_range=48 / chroma_me=1 / trellis=2 / 8x8dct=1 / cqm=0 / deadzone=21,11 / fast_pskip=0 / chroma_qp_offset=-3 / threads=6 / lookahead_threads=1 / sliced_threads=0 / nr=0 / decimate=0 / interlaced=0 / bluray_compat=0 / constrained_intra=0 / bframes=10 / b_pyramid=2 / b_adapt=2 / b_bias=0 / direct=3 / weightb=1 / open_gop=0 / weightp=2 / keyint=240 / keyint_min=23 / scenecut=40 / intra_refresh=0 / rc_lookahead=40 / rc=2pass / mbtree=0 / bitrate=1081 / ratetol=1.0 / qcomp=0.60 / qpmin=0 / qpmax=69 / qpstep=4 / cplxblur=20.0 / qblur=0.5 / vbv_maxrate=50000 / vbv_bufsize=62500 / nal_hrd=none / filler=0 / ip_ratio=1.40 / pb_ratio=1.30 / aq=1:1.00
Default : Да
Forced : Нет
Цветовой диапазон : Limited
Основные цвета : BT.709
Характеристики трансфера : BT.709
Коэффициенты матрицы : BT.709

Аудио
Идентификатор : 2
Формат : AC-3
Формат/Информация : Audio Coding 3
Расширение режима : CM (complete main)
Параметр Endianness формата : Big
Идентификатор кодека : A_AC3
Продолжительность : 1 ч. 21 м.
Вид битрейта : Постоянный
Битрейт : 192 Кбит/сек
Каналы : 2 канала
Расположение каналов : Front: L R
Частота : 48,0 КГц
Частота кадров : 31,250 кадров/сек (1536 spf)
Битовая глубина : 16 бит
Метод сжатия : С потерями
Размер потока : 112 Мбайт (15%)
Default : Да
Forced : Нет

Меню
00:00:00.000 : en:Глава 1
00:05:50.541 : en:Глава 2
00:10:08.249 : en:Глава 3
00:16:11.915 : en:Глава 4
00:21:00.790 : en:Глава 5
00:27:00.373 : en:Глава 6
00:32:16.748 : en:Глава 7
00:37:07.748 : en:Глава 8
00:42:42.414 : en:Глава 9
00:47:58.330 : en:Глава 10
00:53:19.205 : en:Глава 11
00:58:03.621 : en:Глава 12
01:03:14.787 : en:Глава 13
01:08:02.245 : en:Глава 14
01:13:30.620 : en:Глава 15

 
Не забывайте говорить Спасибо. Не уходите с раздачи!   
Торрент: Зарегистрирован [30 мар 2017, 22:56] Для скачивания .torrent
необходима регистрация
Или скачать с помощью
MediaGet
Статус:
Проверен
 
.torrent скачан: 1520 раз
Хэш: 137c3a437284db6596258747c2199c9d3046f898
Размер: 744.97 МБ (781 160 491 байт)
Стать Автором раздачи
 
 
Раздал: 0 байт
Скачал: 0 байт
Ратио: Inf.
Сообщения: 30976
Зарегистрирован: 05 окт 2014, 15:23


  • Похожие торренты
    Ответы
    Просмотры
    Последнее сообщение

Вернуться в Отечественное кино

Ресурс не предоставляет электронные версии произведений, а занимается лишь коллекционированием и каталогизацией ссылок, присылаемых и публикуемых на форуме нашими читателями. Если вы являетесь правообладателем какого-либо представленного материала и не желаете чтобы ссылка на него находилась в нашем каталоге, свяжитесь с нами и мы незамедлительно удалим её. Файлы для обмена на трекере предоставлены пользователями сайта, и администрация не несёт ответственности за их содержание. Просьба не заливать файлы, защищенные авторскими правами, а также файлы нелегального содержания!
cron