Притяжение (2017) BDRip 720р | Лицензия

 
 Статистика раздачи 
Размер: 7.47 ГБ   |  Зарегистрирован: 18 апр 2017, 22:28   |   .torrent скачан: 3787 раз
Сидеров: 872  [ 0 байт/сек ]     Личеров: 155  [ 0 байт/сек ]  
  

Притяжение (2017) BDRip 720р | Лицензия

Сообщение apple2000 » 18 апр 2017, 22:28

«Земля - землянам!»

Информация о фильме
Название: Притяжение
Год выхода: 2017
Жанр: Фантастика
Режиссер: Фёдор Бондарчук
В ролях: Ирина Старшенбаум, Александр Петров, Риналь Мухаметов, Олег Меньшиков, Евгений Сангаджиев, Алексей Маслодудов, Никита Кукушкин, Евгений Михеев, Антон Шпиньков, Евгений Коряковский

О фильме:
Как только что стало известно, сбитый над Москвой неопознанный объект имеет, возможно, внеземное происхождение. Большая часть столичного Чертанова оцеплена, к месту крушения стягиваются представители силовых структур, решается вопрос об эвакуации местных жителей. По словам нашего источника в Минобороны, сейчас специальная комиссия пытается вступить в контакт с так называемыми «гостями». В эти минуты мы готовим экстренный выпуск новостей и о развитии событий вы узнаете первыми…



Страна: Россия
Студия: Кинокомпания «Водород», Art Pictures Studio
Продолжительность: 02:12:31
Перевод: Не требуется

Файл
Качество: BDRip 720p
Кодек: MPEG-4 AVC
Видео: 1280x536 (1,85:1), 24 fps, MPEG-4 AVC ~6397 kbps avg, 0.389 bit/pixel
Аудио: DTS, 48 kHz, 6 ch, ~1509.00 kbps avg | русский | Blu-ray RUS
Субтитры: Отсутствуют

General
Unique ID : 244634874017001492821986321549664035197 (0xB80AF682A6A00C7EA5BEA9647A3DA17D)
Complete name : Prityazhenie.2017.720p.BluRay.Rus.HDCLUB.mkv
Format : Matroska
Format version : Version 2
File size : 7.47 GiB
Duration : 2 h 12 min
Overall bit rate : 8 068 kb/s
Movie name : Prityazhenie (2017) - Release for HDCLUB
Encoded date : UTC 2017-04-18 15:59:08
Writing application : mkvmerge v3.4.0 ('Rapunzel') built on May 15 2010 09:38:20
Writing library : libebml v0.8.0 + libmatroska v0.9.0
Video
ID : 1
Format : AVC
Format/Info : Advanced Video Codec
Format profile : [email protected]
Format settings, CABAC : Yes
Format settings, ReFrames : 12 frames
Codec ID : V_MPEG4/ISO/AVC
Duration : 2 h 12 min
Bit rate : 6 397 kb/s
Width : 1 280 pixels
Height : 536 pixels
Display aspect ratio : 2.40:1
Frame rate mode : Constant
Frame rate : 24.000 FPS
Color space : YUV
Chroma subsampling : 4:2:0
Bit depth : 8 bits
Scan type : Progressive
Bits/(Pixel*Frame) : 0.389
Stream size : 5.92 GiB (79%)
Title : Prityazhenie (2017) - Release for HDCLUB
Writing library : x264 core 148 r2744 b97ae06
Encoding settings : cabac=1 / ref=12 / deblock=1:-3:-3 / analyse=0x3:0x133 / me=umh / subme=11 / psy=1 / psy_rd=1.00:0.00 / mixed_ref=1 / me_range=48 / chroma_me=1 / trellis=2 / 8x8dct=1 / cqm=0 / deadzone=21,11 / fast_pskip=0 / chroma_qp_offset=-2 / threads=17 / lookahead_threads=2 / sliced_threads=0 / nr=0 / decimate=1 / interlaced=0 / bluray_compat=0 / constrained_intra=0 / bframes=8 / b_pyramid=2 / b_adapt=2 / b_bias=0 / direct=1 / weightb=1 / open_gop=0 / weightp=2 / keyint=240 / keyint_min=24 / scenecut=40 / intra_refresh=0 / rc_lookahead=60 / rc=crf / mbtree=0 / crf=16.4 / qcomp=0.60 / qpmin=0 / qpmax=69 / qpstep=4 / vbv_maxrate=50000 / vbv_bufsize=62500 / crf_max=0.0 / nal_hrd=none / filler=0 / ip_ratio=1.35 / pb_ratio=1.25 / aq=3:0.80
Language : Russian
Default : Yes
Forced : No
Audio
ID : 2
Format : DTS
Format/Info : Digital Theater Systems
Mode : 16
Format settings, Endianness : Big
Codec ID : A_DTS
Duration : 2 h 12 min
Bit rate mode : Constant
Bit rate : 1 510 kb/s
Channel(s) : 6 channels
Channel positions : Front: L C R, Side: L R, LFE
Sampling rate : 48.0 kHz
Frame rate : 93.750 FPS (512 spf)
Bit depth : 24 bits
Compression mode : Lossy
Stream size : 1.40 GiB (19%)
Title : DTS 5.1 @ 1536 kbps - Blu-ray RUS
Language : Russian
Default : Yes
Forced : No
Menu
00:00:00.000 : en:
00:10:03.708 : en:
00:23:20.208 : en:
00:29:36.458 : en:
00:42:24.417 : en:
00:50:32.000 : en:
01:02:20.500 : en:
01:14:38.792 : en:
01:23:25.292 : en:
01:37:06.583 : en:
01:46:10.125 : en:
01:55:38.500 : en:


Релиз от:
 
Не забывайте говорить Спасибо. Не уходите с раздачи!   
Торрент: Зарегистрирован [18 апр 2017, 22:28] Для скачивания .torrent
необходима регистрация
Или скачать с помощью
MediaGet
Статус:
Проверен
 
.torrent скачан: 3787 раз
Хэш: cb540a852b6f594b1ed00d3dce41aba74933b64d
Размер: 7.47 ГБ (8 019 127 207 байт)
Стать Автором раздачи
 
 
Раздал: 0 байт
Скачал: 0 байт
Ратио: Inf.
Сообщения: 30945
Зарегистрирован: 05 окт 2014, 15:23


  • Похожие торренты
    Ответы
    Просмотры
    Последнее сообщение

Вернуться в Отечественное кино

Ресурс не предоставляет электронные версии произведений, а занимается лишь коллекционированием и каталогизацией ссылок, присылаемых и публикуемых на форуме нашими читателями. Если вы являетесь правообладателем какого-либо представленного материала и не желаете чтобы ссылка на него находилась в нашем каталоге, свяжитесь с нами и мы незамедлительно удалим её. Файлы для обмена на трекере предоставлены пользователями сайта, и администрация не несёт ответственности за их содержание. Просьба не заливать файлы, защищенные авторскими правами, а также файлы нелегального содержания!
cron