Притяжение (2017) BDRip 720р от k.e.n & nnmclub | Лицензия

 
 Статистика раздачи 
Размер: 4.37 ГБ   |  Зарегистрирован: 20 апр 2017, 21:14   |   .torrent скачан: 8739 раз
Сидеров: 1266  [ 0 байт/сек ]     Личеров: 144  [ 0 байт/сек ]  
  

Притяжение (2017) BDRip 720р от k.e.n & nnmclub | Лицензия

Сообщение apple2000 » 20 апр 2017, 21:14

Производство: Россия / Кинокомпания «Водород», Art Pictures Studio
Жанр: фантастика
Продолжительность: 02:12:31
Перевод: Не требуется (Русский, Лицензия BD RUS)
Субтитры: Отсутствуют
Режиссер: Фёдор Бондарчук
Продюсер: Фёдор Бондарчук, Дмитрий Рудовский, Михаил Врубель
Актеры: Ирина Старшенбаум, Олег Меньшиков, Александр Петров, Никита Кукушкин, Евгений Сангаджиев, Дарья Руденок, Риналь Мухаметов, Людмила Максакова, Евгений Коряковский, Ульяна Куликова, Сергей Шаталов, Евгений Михеев, Никита Тарасов, Сергей Гармаш

Описание:
…Как только что стало известно, сбитый над Москвой неопознанный объект имеет, возможно, внеземное происхождение. Большая часть столичного Чертанова оцеплена, к месту крушения стягиваются представители силовых структур, решается вопрос об эвакуации местных жителей. По словам нашего источника в Минобороны, сейчас специальная комиссия пытается вступить в контакт с так называемыми «гостями». В эти минуты мы готовим экстренный выпуск новостей и о развитии событий вы узнаете первыми…



Релиз от: K.E.N
Качество: BDRip 720p
Видео: AVC, 1280x538 (2.40:1), 24.000 fps, 4 082 Kbps (0.247 bit/pixel)
Аудио: AC-3, 48.0 KHz, 6 ch, 640 Kbps, CBR

x264 [info]: profile High, level 4.1
x264 [info]: frame I:1731 Avg QP:15.23 size:114007 PSNR Mean Y:47.57 U:50.82 V:49.94 Avg:48.30 Global:47.82
x264 [info]: frame P:46862 Avg QP:18.09 size: 38578 PSNR Mean Y:45.69 U:49.94 V:48.66 Avg:46.56 Global:45.93
x264 [info]: frame B:142249 Avg QP:19.98 size: 14424 PSNR Mean Y:44.68 U:49.42 V:47.86 Avg:45.60 Global:44.87
Формат : Matroska
Версия формата : Version 2
Размер файла : 4,37 Гбайт
Продолжительность : 2 ч. 12 м.
Общий поток : 4724 Кбит/сек
Дата кодирования : UTC 2017-04-20 08:43:55
Программа кодирования : mkvmerge v5.3.0 ('I could have danced') built on Feb 9 2012 10:38:07
Библиотека кодирования : libebml v1.2.3 + libmatroska v1.3.0
Attachments : poster (10).jpg

Видео
Идентификатор : 1
Формат : AVC
Формат/Информация : Advanced Video Codec
Профиль формата : [email protected]
Параметр CABAC формата : Да
Параметр ReFrames формата : 12 кадров
Идентификатор кодека : V_MPEG4/ISO/AVC
Продолжительность : 2 ч. 12 м.
Битрейт : 4082 Кбит/сек
Ширина : 1280 пикселей
Высота : 538 пикселей
Соотношение сторон : 2,40:1
Режим частоты кадров : Постоянный
Частота кадров : 24,000 кадра/сек
Цветовое пространство : YUV
Субдискретизация насыщенности : 4:2:0
Битовая глубина : 8 бит
Тип развёртки : Прогрессивная
Бит/(Пиксели*Кадры) : 0.247
Размер потока : 3,69 Гбайт (84%)
Библиотека кодирования : x264 core 146 r2538 121396c
Настройки программы : cabac=1 / ref=12 / deblock=1:-3:-3 / analyse=0x3:0x133 / me=umh / subme=11 / psy=1 / psy_rd=1.05:0.00 / mixed_ref=1 / me_range=32 / chroma_me=1 / trellis=2 / 8x8dct=1 / cqm=0 / deadzone=21,11 / fast_pskip=0 / chroma_qp_offset=-2 / threads=12 / lookahead_threads=3 / sliced_threads=0 / nr=0 / decimate=0 / interlaced=0 / bluray_compat=0 / constrained_intra=0 / bframes=10 / b_pyramid=2 / b_adapt=2 / b_bias=0 / direct=3 / weightb=1 / open_gop=0 / weightp=2 / keyint=240 / keyint_min=23 / scenecut=40 / intra_refresh=0 / rc=2pass / mbtree=0 / bitrate=4082 / ratetol=1.0 / qcomp=0.60 / qpmin=0 / qpmax=69 / qpstep=4 / cplxblur=20.0 / qblur=0.5 / ip_ratio=1.40 / pb_ratio=1.30 / aq=1:0.80
Default : Да
Forced : Нет

Аудио
Идентификатор : 2
Формат : AC-3
Формат/Информация : Audio Coding 3
Расширение режима : CM (complete main)
Параметр Endianness формата : Big
Идентификатор кодека : A_AC3
Продолжительность : 2 ч. 12 м.
Вид битрейта : Постоянный
Битрейт : 640 Кбит/сек
Каналы : 6 каналов
Расположение каналов : Front: L C R, Side: L R, LFE
Частота : 48,0 КГц
Частота кадров : 31,250 кадров/сек (1536 spf)
Битовая глубина : 16 бит
Метод сжатия : С потерями
Размер потока : 607 Мбайт (14%)
Default : Да
Forced : Нет

Меню
00:00:00.000 : :Chapter 01
00:10:03.708 : :Chapter 02
00:23:20.208 : :Chapter 03
00:29:36.458 : :Chapter 04
00:42:24.416 : :Chapter 05
00:50:32.000 : :Chapter 06
01:02:20.500 : :Chapter 07
01:14:38.791 : :Chapter 08
01:23:25.291 : :Chapter 09
01:37:06.583 : :Chapter 10
01:46:10.125 : :Chapter 11
01:55:38.500 : :Chapter 12
02:12:31.791 : :Chapter 13

Скриншоты:
 
Не забывайте говорить Спасибо. Не уходите с раздачи!   
Торрент: Зарегистрирован [20 апр 2017, 21:14] Для скачивания .torrent
необходима регистрация
Или скачать с помощью
MediaGet
Статус:
Проверен
 
.torrent скачан: 8739 раз
Хэш: 595887538f3a8d09a6a6d61b3d0330c658cc8f9b
Размер: 4.37 ГБ (4 695 383 892 байт)
Стать Автором раздачи
 
 
Раздал: 0 байт
Скачал: 0 байт
Ратио: Inf.
Сообщения: 31155
Зарегистрирован: 05 окт 2014, 15:23


  • Похожие торренты
    Ответы
    Просмотры
    Последнее сообщение

Вернуться в Отечественное кино

Ресурс не предоставляет электронные версии произведений, а занимается лишь коллекционированием и каталогизацией ссылок, присылаемых и публикуемых на форуме нашими читателями. Если вы являетесь правообладателем какого-либо представленного материала и не желаете чтобы ссылка на него находилась в нашем каталоге, свяжитесь с нами и мы незамедлительно удалим её. Файлы для обмена на трекере предоставлены пользователями сайта, и администрация не несёт ответственности за их содержание. Просьба не заливать файлы, защищенные авторскими правами, а также файлы нелегального содержания!
cron