Разбуди меня (Гийом Проценко) [2017, Триллер, драма, WEB-DLRip]

 
 Статистика раздачи 
Размер: 1.46 ГБ   |  Зарегистрирован: 21 апр 2017, 07:45   |   .torrent скачан: 1 раз
Сидеров: 34  [ 0 байт/сек ]     Личеров: 11  [ 0 байт/сек ]  
  

Разбуди меня (Гийом Проценко) [2017, Триллер, драма, WEB-DLRip]

Сообщение Lester » 21 апр 2017, 07:45

Разбуди меня

Год выпуска: 2017
Выпущено: Россия / Синетрейн
Жанр: триллер, драма
Продолжительность: 01:35:01
Режиссёр:
Гийом Проценко
В ролях:
Константин Лавроненко, Кирилл Пирогов, Ирина Вербицкая, Евгений Гришковец, Александра Ребенок, Даниил Воробьев, Елена Морозова, Валерий Гришко, Илья Древнов, Екатерина Волкова
Описание:
Женя работает в службе пограничного контроля столичного аэропорта. Больше года назад при странных обстоятельствах исчез её возлюбленный Андрей. Женя буквально помешалась на собственном прошлом в то время, как ей снится будущее. Сны о коллегах и коррупционных схемах наркотрафика становятся реальностью. Постепенно Женя становится частью окружающего её криминального мира, и сама того не осознавая, играет в нём не последнюю роль. Ей кажется, что, находясь между сном и реальностью, она может изменить будущее. Женя думает, что может обмануть судьбу и спасти свою новую любовь от трагедии, но так ли это на самом деле?
Релиз групп | | КиноПоиск | Сэмпл |
Качество: WEB-DLRip [Razbudi.menya.2017.1080p.WEB-DL.Rus.HDCLUB]
Формат: AVI

Видео: 704x384 (1.83:1), 24.000 fps, XviD build 67 ~1800 kbps avg, 0.28 bit/pixel
Аудио: 48 kHz, AC3 Dolby Digital, 3/2 (L,C,R,l,r) + LFE ch, ~384 kbps avg - iTunes Russia

Код:
Код: Выделить всё
Общее
Полное имя                               : D:\Razbudi_menya_2017_WEB-DLRip_iT_by_Dalemake.avi
Формат                                   : AVI
Формат/Информация                        : Audio Video Interleave
Размер файла                             : 1,46 Гбайт
Продолжительность                        : 1 ч. 35 м.
Общий поток                              : 2194 Кбит/сек
Программа кодирования                    : VirtualDubMod 1.5.10.3 | www.virtualdub-fr.org || (build 2550/release)
Библиотека кодирования                   : VirtualDubMod build 2550/release

Видео
Идентификатор                            : 0
Формат                                   : MPEG-4 Visual
Профиль формата                          : Advanced [email protected]
Параметр BVOP формата                    : 1
Параметр QPel формата                    : Нет
Параметр GMC формата                     : Без точки перехода
Параметр матрицы формата                 : Выборочная
Идентификатор кодека                     : XVID
Идентификатор кодека/Подсказка           : XviD
Продолжительность                        : 1 ч. 35 м.
Битрейт                                  : 1801 Кбит/сек
Ширина                                   : 704 пикселя
Высота                                   : 384 пикселя
Соотношение сторон                       : 1,85:1
Частота кадров                           : 24,000 кадра/сек
Цветовое пространство                    : YUV
Субдискретизация насыщенности            : 4:2:0
Битовая глубина                          : 8 бит
Тип развёртки                            : Прогрессивная
Метод сжатия                             : С потерями
Бит/(Пиксели*Кадры)                      : 0.278
Размер потока                            : 1,20 Гбайт (82%)
Библиотека кодирования                   : XviD 67

Аудио
Идентификатор                            : 1
Формат                                   : AC-3
Формат/Информация                        : Audio Coding 3
Расширение режима                        : CM (complete main)
Параметр Endianness формата              : Big
Идентификатор кодека                     : 2000
Продолжительность                        : 1 ч. 35 м.
Вид битрейта                             : Постоянный
Битрейт                                  : 384 Кбит/сек
Каналы                                   : 6 каналов
Расположение каналов                     : Front: L C R, Side: L R, LFE
Частота                                  : 48,0 КГц
Битовая глубина                          : 16 бит
Метод сжатия                             : С потерями
Размер потока                            : 261 Мбайт (18%)
Выравнивание                             : Разделение по промежуткам
Продолжительность промежутка             : 42  мс. (1,00 видеокадр)
Время предзагрузки промежутка            : 500  мс.


 
Не забывайте говорить Спасибо. Не уходите с раздачи!   
Торрент: Зарегистрирован [21 апр 2017, 07:45] Для скачивания .torrent
необходима регистрация
Или скачать с помощью
MediaGet
Статус:
Проверен
 
.torrent скачан: 1 раз
Хэш: eeac2245a889541e406a59dc14a6d847a0e96eaa
Размер: 1.46 ГБ (1 563 564 032 байт)
Стать Автором раздачи
 
 
Раздал: 100 ГБ
Скачал: 0 байт
Ратио: Seed.
Сообщения: 113170
Зарегистрирован: 09 апр 2015, 23:00


  • Похожие торренты
    Ответы
    Просмотры
    Последнее сообщение

Вернуться в Отечественное кино

Ресурс не предоставляет электронные версии произведений, а занимается лишь коллекционированием и каталогизацией ссылок, присылаемых и публикуемых на форуме нашими читателями. Если вы являетесь правообладателем какого-либо представленного материала и не желаете чтобы ссылка на него находилась в нашем каталоге, свяжитесь с нами и мы незамедлительно удалим её. Файлы для обмена на трекере предоставлены пользователями сайта, и администрация не несёт ответственности за их содержание. Просьба не заливать файлы, защищенные авторскими правами, а также файлы нелегального содержания!
cron