Разбуди меня (Гийом Проценко) [2017, триллер, драма, WEB-DLRip-AVC]

 
 Статистика раздачи 
Размер: 1.35 ГБ   |  Зарегистрирован: 21 апр 2017, 09:49   |   .torrent скачан: 1 раз
Сидеров: 34  [ 0 байт/сек ]     Личеров: 11  [ 0 байт/сек ]  
  

Разбуди меня (Гийом Проценко) [2017, триллер, драма, WEB-DLRip-AVC]

Сообщение Lester » 21 апр 2017, 09:49

Разбуди меня

Жанр: триллер, драма
Год выпуска: 2017
Продолжительность: 01:35:01

Режиссер: Гийом Проценко

В ролях: Константин Лавроненко (Алек), Кирилл Пирогов (Стас), Ирина Вербицкая (Женя), Евгений Гришковец (Голова), Александра Ребенок (Даш), Даниил Воробьев (Андрей), Елена Морозова (психолог), Валерий Гришко (шеф), Илья Древнов (Сергей), Екатерина Волкова (Девушка Алека), Александр Лымарев (Дима), Жаныл Мырза (Мул)

Описание: Женя работает в службе пограничного контроля столичного аэропорта. Больше года назад при странных обстоятельствах исчез её возлюбленный Андрей. Женя буквально помешалась на собственном прошлом в то время, как ей снится будущее. Сны о коллегах и коррупционных схемах наркотрафика становятся реальностью. Постепенно Женя становится частью окружающего её криминального мира, и сама того не осознавая, играет в нём не последнюю роль. Ей кажется, что, находясь между сном и реальностью, она может изменить будущее. Женя думает, что может обмануть судьбу и спасти свою новую любовь от трагедии, но так ли это на самом деле?

Качество: WEB-DLRip-AVC (исходник - Razbudi.menya.2017.1080p.WEB-DL.Rus.HDCLUB)
Формат видео: MKV

Видео: x264, 1136x616 (1.85:1) 24 fps, ~1615 kbps, 0.096 bit/pixel
Аудио: 48 kHz, AC3 Dolby Digital, 5.1 (Front: L C R, Side: L R, LFE) ch, ~384 kbps
Format : Matroska
Format version : Version 4 / Version 2
File size : 1.35 GiB
Duration : 1 h 35 min
Overall bit rate : 2 040 kb/s
Movie name : Разбуди меня (2017) :: AFM ::
Encoded date : UTC 2017-04-21 06:28:16
Writing application : mkvmerge v8.3.0 ('Over the Horizon') 32bit
Writing library : libebml v1.3.1 + libmatroska v1.4.2

Video
ID : 1
Format : AVC
Format/Info : Advanced Video Codec
Format profile : [email protected]
Format settings, CABAC : Yes
Format settings, ReFrames : 11 frames
Codec ID : V_MPEG4/ISO/AVC
Duration : 1 h 35 min
Bit rate : 1 616 kb/s
Width : 1 136 pixels
Height : 616 pixels
Display aspect ratio : 1.85:1
Frame rate mode : Constant
Frame rate : 24.000 FPS
Color space : YUV
Chroma subsampling : 4:2:0
Bit depth : 8 bits
Scan type : Progressive
Bits/(Pixel*Frame) : 0.096
Stream size : 1.07 GiB (79%)
Title : WEB-DLRip by AFM
Writing library : x264 core 150 r2773+45 df9a66c 7mod [[email protected] X86_64]
Encoding settings : cabac=1 / ref=11 / deblock=1:-3:-2 / analyse=0x3:0x113 / me=umh / subme=10 / psy=1 / fade_compensate=0.00 / psy_rd=1.00:0.00 / mixed_ref=1 / me_range=32 / chroma_me=0 / trellis=2 / 8x8dct=1 / cqm=0 / deadzone=21,11 / fast_pskip=0 / chroma_qp_offset=-2 / threads=6 / lookahead_threads=1 / sliced_threads=0 / nr=0 / decimate=1 / interlaced=0 / bluray_compat=0 / constrained_intra=0 / fgo=0 / bframes=10 / b_pyramid=2 / b_adapt=2 / b_bias=0 / direct=1 / weightb=1 / open_gop=0 / weightp=2 / keyint=240 / keyint_min=23 / scenecut=40 / intra_refresh=0 / rc_lookahead=60 / rc=crf / mbtree=0 / crf=18.6000 / qcomp=0.65 / qpmin=0:0:0 / qpmax=69:69:69 / qpstep=4 / vbv_maxrate=50000 / vbv_bufsize=62500 / crf_max=0.0 / nal_hrd=none / filler=0 / ip_ratio=1.35 / pb_ratio=1.25 / aq=4:0.80 / aq-sensitivity=10.00 / aq-factor=1.00:1.00:1.00 / aq2=0 / aq3=0 / zones=132335,136824,q=30
Language : Russian
Default : Yes
Forced : No

Audio
ID : 2
Format : AC-3
Format/Info : Audio Coding 3
Mode extension : CM (complete main)
Format settings, Endianness : Big
Codec ID : A_AC3
Duration : 1 h 35 min
Bit rate mode : Constant
Bit rate : 384 kb/s
Channel(s) : 6 channels
Channel positions : Front: L C R, Side: L R, LFE
Sampling rate : 48.0 kHz
Frame rate : 31.250 FPS (1536 spf)
Compression mode : Lossy
Stream size : 261 MiB (19%)
Title : AC3 5.1 ~384 kbps
Language : Russian
Default : Yes
Forced : No

Menu
00:00:00.000 : en:1
00:04:44.083 : en:2
00:10:48.083 : en:3
00:16:46.499 : en:4
00:21:22.540 : en:5
00:27:58.123 : en:6
00:33:47.248 : en:7
00:40:23.914 : en:8
00:48:58.039 : en:9
00:54:27.164 : en:10
01:00:45.580 : en:11
01:07:34.621 : en:12
01:14:52.912 : en:13
01:20:26.912 : en:14
01:25:41.662 : en:15
x264 [info]: frame I:900 Avg QP:15.60 size: 57145
x264 [info]: frame P:33100 Avg QP:17.12 size: 18438
x264 [info]: frame B:102824 Avg QP:19.67 size: 5031
x264 [info]: consecutive B-frames: 1.2% 1.9% 3.6% 69.8% 7.0% 14.3% 1.1% 0.7% 0.1% 0.2% 0.2%
x264 [info]: mb I I16..4: 9.7% 70.2% 20.1%
x264 [info]: mb P I16..4: 1.1% 5.6% 0.9% P16..4: 43.3% 27.2% 12.5% 0.0% 0.0% skip: 9.5%
x264 [info]: mb B I16..4: 0.1% 0.3% 0.1% B16..8: 38.4% 7.2% 1.4% direct: 3.2% skip:49.3% L0:40.6% L1:49.9% BI: 9.5%
x264 [info]: 8x8 transform intra:73.5% inter:67.8%
x264 [info]: coded y,uvDC,uvAC intra: 77.7% 72.1% 43.3% inter: 12.5% 10.1% 0.8%
x264 [info]: i16 v,h,dc,p: 27% 15% 8% 51%
x264 [info]: i8 v,h,dc,ddl,ddr,vr,hd,vl,hu: 16% 11% 5% 9% 12% 12% 12% 11% 12%
x264 [info]: i4 v,h,dc,ddl,ddr,vr,hd,vl,hu: 16% 10% 4% 10% 14% 13% 12% 10% 11%
x264 [info]: i8c dc,h,v,p: 36% 27% 22% 15%
x264 [info]: Weighted P-Frames: Y:98.1% UV:0.9%
x264 [info]: ref P L0: 49.0% 6.8% 17.4% 6.5% 5.3% 4.1% 3.6% 1.9% 1.8% 1.7% 1.7% 0.0% 0.0%
x264 [info]: ref B L0: 75.4% 10.8% 5.2% 2.4% 1.8% 1.5% 1.2% 0.7% 0.5% 0.3%
x264 [info]: ref B L1: 94.9% 5.1%
x264 [info]: kb/s:1654.48
 
Не забывайте говорить Спасибо. Не уходите с раздачи!   
Торрент: Зарегистрирован [21 апр 2017, 09:49] Для скачивания .torrent
необходима регистрация
Или скачать с помощью
MediaGet
Статус:
Проверен
 
.torrent скачан: 1 раз
Хэш: 783941b708360ad610cb3fdb692f11b92b8ab3de
Размер: 1.35 ГБ (1 453 881 629 байт)
Стать Автором раздачи
 
 
Раздал: 100 ГБ
Скачал: 0 байт
Ратио: Seed.
Сообщения: 113162
Зарегистрирован: 09 апр 2015, 23:00


  • Похожие торренты
    Ответы
    Просмотры
    Последнее сообщение

Вернуться в Отечественное кино

Ресурс не предоставляет электронные версии произведений, а занимается лишь коллекционированием и каталогизацией ссылок, присылаемых и публикуемых на форуме нашими читателями. Если вы являетесь правообладателем какого-либо представленного материала и не желаете чтобы ссылка на него находилась в нашем каталоге, свяжитесь с нами и мы незамедлительно удалим её. Файлы для обмена на трекере предоставлены пользователями сайта, и администрация не несёт ответственности за их содержание. Просьба не заливать файлы, защищенные авторскими правами, а также файлы нелегального содержания!
cron