Защитники (Сарик Андреасян) [2017, фантастика, фэнтези, боевик, приключения, BDRip]

 
 Статистика раздачи 
Размер: 1.46 ГБ   |  Зарегистрирован: 21 апр 2017, 11:54   |   .torrent скачан: 0 раз
Сидеров: 34  [ 0 байт/сек ]     Личеров: 11  [ 0 байт/сек ]  
  

Защитники (Сарик Андреасян) [2017, фантастика, фэнтези, боевик, приключения, BDRip]

Сообщение Lester » 21 апр 2017, 11:54

Защитники


Жанр: фантастика, фэнтези, боевик, приключения
Год выпуска: 2017
Продолжительность: 01:28:57

Режиссёр: Сарик Андреасян

В ролях: Антон Пампушный, Санжар Мади, Себастьян Сисак, Алина Кизиярова-Ланина, Станислав Ширин, Валерия Шкирандо, Вячеслав Разбегаев, Александр Семенов, Владимир Бутенко, Мила Максимова

Описание: Во времена Холодной войны секретная организация «Патриот» создала отряд супергероев, в который вошли участники из различных советских республик. Долгие годы героям приходилось скрывать свою сущность, однако в тяжелые для страны времена они вновь берутся за дело.

Сэмпл: http://multi-up.com/1150976

Качество видео: BDRip (исх. Защитники (2016) Blu-ray RUS 1080p AVC DTS-HD 5.1)
Формат видео: AVI

Видео: 720x304 (2.37:1), 24 fps, XviD MPEG-4 ~1893 kbps avg, 0.36 bit/pixel
Аудио: 48 kHz, AC3 Dolby Digital, 3/2 (L,C,R,l,r) + LFE ch, ~448 kbps

Format : AVI
Format/Info : Audio Video Interleave
File size : 1.46 GiB
Duration : 1 h 28 min
Overall bit rate : 2 351 kb/s
Writing application : VirtualDubMod 1.5.10.3 (build 2550/release)
Writing library : VirtualDubMod build 2550/release

Video
ID : 0
Format : MPEG-4 Visual
Format profile : Advanced [email protected]
Format settings, BVOP : 2
Format settings, QPel : No
Format settings, GMC : No warppoints
Format settings, Matrix : Custom
Codec ID : XVID
Codec ID/Hint : XviD
Duration : 1 h 28 min
Bit rate : 1 893 kb/s
Width : 720 pixels
Height : 304 pixels
Display aspect ratio : 2.35:1
Frame rate : 24.000 FPS
Color space : YUV
Chroma subsampling : 4:2:0
Bit depth : 8 bits
Scan type : Progressive
Compression mode : Lossy
Bits/(Pixel*Frame) : 0.360
Stream size : 1.18 GiB (81%)
Writing library : XviD 73

Audio
ID : 1
Format : AC-3
Format/Info : Audio Coding 3
Mode extension : CM (complete main)
Format settings, Endianness : Big
Codec ID : 2000
Duration : 1 h 28 min
Bit rate mode : Constant
Bit rate : 448 kb/s
Channel(s) : 6 channels
Channel positions : Front: L C R, Side: L R, LFE
Sampling rate : 48.0 kHz
Frame rate : 31.250 FPS (1536 spf)
Compression mode : Lossy
Stream size : 285 MiB (19%)
Alignment : Split accross interleaves
Interleave, duration : 42 ms (1.00 video frame)
Interleave, preload duration : 500 ms
 
Не забывайте говорить Спасибо. Не уходите с раздачи!   
Торрент: Зарегистрирован [21 апр 2017, 11:54] Для скачивания .torrent
необходима регистрация
Или скачать с помощью
MediaGet
Статус:
Проверен
 
.torrent скачан: 0 раз
Хэш: 6cf45ad2bef9e42d6458c255b96d82b86b0bdfd5
Размер: 1.46 ГБ (1 568 163 840 байт)
Стать Автором раздачи
 
 
Раздал: 100 ГБ
Скачал: 0 байт
Ратио: Seed.
Сообщения: 113162
Зарегистрирован: 09 апр 2015, 23:00


  • Похожие торренты
    Ответы
    Просмотры
    Последнее сообщение

Вернуться в Отечественное кино

Ресурс не предоставляет электронные версии произведений, а занимается лишь коллекционированием и каталогизацией ссылок, присылаемых и публикуемых на форуме нашими читателями. Если вы являетесь правообладателем какого-либо представленного материала и не желаете чтобы ссылка на него находилась в нашем каталоге, свяжитесь с нами и мы незамедлительно удалим её. Файлы для обмена на трекере предоставлены пользователями сайта, и администрация не несёт ответственности за их содержание. Просьба не заливать файлы, защищенные авторскими правами, а также файлы нелегального содержания!
cron