Притяжение (Фёдор Бондарчук) [2017, фантастика, BDRip]

 
 Статистика раздачи 
Размер: 2.18 ГБ   |  Зарегистрирован: 21 апр 2017, 13:42   |   .torrent скачан: 1 раз
Сидеров: 204  [ 0 байт/сек ]     Личеров: 66  [ 0 байт/сек ]  
  

Притяжение (Фёдор Бондарчук) [2017, фантастика, BDRip]

Сообщение Lester » 21 апр 2017, 13:43

Притяжение


Жанр: фантастика
Год выпуска: 2017
Продолжительность: 02:12:31

Режиссёр: Фёдор Бондарчук

В ролях: Ирина Старшенбаум, Александр Петров, Риналь Мухаметов, Олег Меньшиков, Евгений Сангаджиев, Алексей Маслодудов, Никита Кукушкин, Евгений Михеев, Антон Шпиньков, Евгений Коряковский

Описание: Как только что стало известно, сбитый над Москвой неопознанный объект имеет, возможно, внеземное происхождение. Большая часть столичного Чертанова оцеплена, к месту крушения стягиваются представители силовых структур, решается вопрос об эвакуации местных жителей. По словам нашего источника в Минобороны, сейчас специальная комиссия пытается вступить в контакт с так называемыми «гостями». В эти минуты мы готовим экстренный выпуск новостей и о развитии событий вы узнаете первыми.

Сэмпл: http://multi-up.com/1150893

Качество видео: BDRip (источник: HDClub / Blu-ray / 1080р)
Формат видео: AVI

Видео: 720x304 (2.37:1), 24 fps, XviD build 65 ~1903 kbps avg, 0.36 bit/pixel
Аудио: 48 kHz, AC3 Dolby Digital, 3/2 (L,C,R,l,r) + LFE ch, ~448 kbps avg

Релиз:
Автор: sociolog_melvas

Format : AVI
Format/Info : Audio Video Interleave
Format profile : OpenDML
File size : 2.18 GiB
Duration : 2 h 12 min
Overall bit rate : 2 358 kb/s
Writing application : VirtualDubMod 1.5.10.2 (build 2540/release)

Video
ID : 0
Format : MPEG-4 Visual
Format profile : Advanced [email protected]
Format settings, BVOP : 1
Format settings, QPel : No
Format settings, GMC : No warppoints
Format settings, Matrix : Custom
Codec ID : XVID
Codec ID/Hint : XviD
Duration : 2 h 12 min
Bit rate : 1 898 kb/s
Width : 720 pixels
Height : 304 pixels
Display aspect ratio : 2.35:1
Frame rate : 24.000 FPS
Color space : YUV
Chroma subsampling : 4:2:0
Bit depth : 8 bits
Scan type : Progressive
Compression mode : Lossy
Bits/(Pixel*Frame) : 0.361
Stream size : 1.76 GiB (80%)
Writing library : XviD 65

Audio
ID : 1
Format : AC-3
Format/Info : Audio Coding 3
Mode extension : CM (complete main)
Format settings, Endianness : Big
Codec ID : 2000
Duration : 2 h 12 min
Bit rate mode : Constant
Bit rate : 448 kb/s
Channel(s) : 6 channels
Channel positions : Front: L C R, Side: L R, LFE
Sampling rate : 48.0 kHz
Frame rate : 31.250 FPS (1536 spf)
Compression mode : Lossy
Stream size : 425 MiB (19%)
Alignment : Split accross interleaves
Interleave, duration : 42 ms (1.00 video frame)
Interleave, preload duration : 500 ms
 
Не забывайте говорить Спасибо. Не уходите с раздачи!   
Торрент: Зарегистрирован [21 апр 2017, 13:42] Для скачивания .torrent
необходима регистрация
Или скачать с помощью
MediaGet
Статус:
Проверен
 
.torrent скачан: 1 раз
Хэш: bb90d14643d54d195ed25179623a1733651bbb6b
Размер: 2.18 ГБ (2 343 917 568 байт)
Стать Автором раздачи
 
 
Раздал: 100 ГБ
Скачал: 0 байт
Ратио: Seed.
Сообщения: 113170
Зарегистрирован: 09 апр 2015, 23:00


  • Похожие торренты
    Ответы
    Просмотры
    Последнее сообщение

Вернуться в Отечественное кино

Ресурс не предоставляет электронные версии произведений, а занимается лишь коллекционированием и каталогизацией ссылок, присылаемых и публикуемых на форуме нашими читателями. Если вы являетесь правообладателем какого-либо представленного материала и не желаете чтобы ссылка на него находилась в нашем каталоге, свяжитесь с нами и мы незамедлительно удалим её. Файлы для обмена на трекере предоставлены пользователями сайта, и администрация не несёт ответственности за их содержание. Просьба не заливать файлы, защищенные авторскими правами, а также файлы нелегального содержания!
cron