Защитники (2017) BDRip-AVC от ExKinoRay | Лицензия

 
 Статистика раздачи 
Размер: 1.7 ГБ   |  Зарегистрирован: 21 апр 2017, 16:11   |   .torrent скачан: 8206 раз
Сидеров: 1152  [ 0 байт/сек ]     Личеров: 68  [ 0 байт/сек ]  
  

Защитники (2017) BDRip-AVC от ExKinoRay | Лицензия

Сообщение apple2000 » 21 апр 2017, 16:11

Информация о фильме
Название: Защитники
Год выхода: 2017
Жанр: фантастика, фэнтези, боевик, приключения
Режиссер: Сарик Андреасян
В ролях: Антон Пампушный, Санжар Мади, Себастьян Сисак, Алина Ланина, Станислав Ширин, Валерия Шкирандо, Вячеслав Разбегаев, Александр Семенов, Владимир Бутенко, Мила Максимова
О фильме: Во времена Холодной войны секретная организация «Патриот» создала отряд супергероев, в который вошли участники из различных советских республик. Долгие годы героям приходилось скрывать свою сущность, однако в тяжелые для страны времена они вновь берутся за дело.


Выпущено: Россия / Enjoy Movies
Продолжительность: 01:28:57
Озвучивание: Оригинальное [Лицензия]
Файл
Формат: MKV
Качество: BDRip-AVC
Видео: AVC, 1024х430 (2.40:1), 2289 kbps, 24,000 fps, 0,217 bpp
Аудио: русский / AC3 / 5.1 / 48 kHz / 448 kbps / |Оригинал|
Навигация по главам: есть
General
Unique ID : 201677553784965222730605462262954739947 (0x97B9AF1A43DBB7CD917380E76B3A48EB)
Complete name : D:Zashchitniki.2017.O.BDRip.AVC.ExKinoRay.mkv
Format : Matroska
Format version : Version 2
File size : 1.70 GiB
Duration : 1 h 28 min
Overall bit rate : 2 738 kb/s
Movie name : Защитники (2016) from ExKinoRay
Encoded date : UTC 2017-04-21 11:37:57
Writing application : mkvmerge v5.8.0 ('No Sleep / Pillow') built on Sep 2 2012 15:37:04
Writing library : libebml v1.2.3 + libmatroska v1.3.0

Video
ID : 1
Format : AVC
Format/Info : Advanced Video Codec
Format profile : [email protected]
Format settings, CABAC : Yes
Format settings, ReFrames : 12 frames
Codec ID : V_MPEG4/ISO/AVC
Duration : 1 h 28 min
Bit rate : 2 289 kb/s
Width : 1 024 pixels
Height : 430 pixels
Display aspect ratio : 2.40:1
Frame rate mode : Constant
Frame rate : 24.000 FPS
Color space : YUV
Chroma subsampling : 4:2:0
Bit depth : 8 bits
Scan type : Progressive
Bits/(Pixel*Frame) : 0.217
Stream size : 1.39 GiB (82%)
Title : Enigma
Writing library : x264 core 144 r2525 40bb568
Encoding settings : cabac=1 / ref=12 / deblock=1:-3:-3 / analyse=0x3:0x113 / me=umh / subme=10 / psy=1 / psy_rd=1.00:0.05 / mixed_ref=1 / me_range=32 / chroma_me=1 / trellis=2 / 8x8dct=1 / cqm=0 / deadzone=21,11 / fast_pskip=1 / chroma_qp_offset=-3 / threads=12 / lookahead_threads=3 / sliced_threads=0 / nr=0 / decimate=0 / interlaced=0 / bluray_compat=0 / constrained_intra=0 / bframes=12 / b_pyramid=2 / b_adapt=2 / b_bias=0 / direct=3 / weightb=1 / open_gop=0 / weightp=2 / keyint=240 / keyint_min=24 / scenecut=40 / intra_refresh=0 / rc_lookahead=40 / rc=2pass / mbtree=0 / bitrate=2289 / ratetol=1.0 / qcomp=0.61 / qpmin=0 / qpmax=51 / qpstep=4 / cplxblur=20.0 / qblur=0.5 / vbv_maxrate=50000 / vbv_bufsize=62500 / nal_hrd=none / filler=0 / ip_ratio=1.40 / pb_ratio=1.30 / aq=1:0.90
Language : English
Default : Yes
Forced : No
Color range : Limited
Color primaries : BT.709
Transfer characteristics : BT.709
Matrix coefficients : BT.709

Audio
ID : 2
Format : AC-3
Format/Info : Audio Coding 3
Mode extension : CM (complete main)
Format settings, Endianness : Big
Codec ID : A_AC3
Duration : 1 h 28 min
Bit rate mode : Constant
Bit rate : 448 kb/s
Channel(s) : 6 channels
Channel positions : Front: L C R, Side: L R, LFE
Sampling rate : 48.0 kHz
Frame rate : 31.250 FPS (1536 spf)
Compression mode : Lossy
Stream size : 285 MiB (16%)
Title : Лицензия
Language : Russian
Default : Yes
Forced : No

Menu
00:00:00.000 : :Chapter 01
00:00:52.208 : :Chapter 02
00:10:50.416 : :Chapter 03
00:21:24.375 : :Chapter 04
00:33:35.750 : :Chapter 05
00:44:08.208 : :Chapter 06
00:55:49.083 : :Chapter 07
01:06:44.416 : :Chapter 08
01:17:46.833 : :Chapter 09




Релиз от:

Автор релиза:
 
Не забывайте говорить Спасибо. Не уходите с раздачи!   
Торрент: Зарегистрирован [21 апр 2017, 16:11] Для скачивания .torrent
необходима регистрация
Или скачать с помощью
MediaGet
Статус:
Проверен
 
.torrent скачан: 8206 раз
Хэш: 105e015ed62ac5169e40d4c349a7cc516596f4a3
Размер: 1.7 ГБ (1 826 351 500 байт)
Стать Автором раздачи
 
 
Раздал: 0 байт
Скачал: 0 байт
Ратио: Inf.
Сообщения: 30976
Зарегистрирован: 05 окт 2014, 15:23


  • Похожие торренты
    Ответы
    Просмотры
    Последнее сообщение

Вернуться в Отечественное кино

Ресурс не предоставляет электронные версии произведений, а занимается лишь коллекционированием и каталогизацией ссылок, присылаемых и публикуемых на форуме нашими читателями. Если вы являетесь правообладателем какого-либо представленного материала и не желаете чтобы ссылка на него находилась в нашем каталоге, свяжитесь с нами и мы незамедлительно удалим её. Файлы для обмена на трекере предоставлены пользователями сайта, и администрация не несёт ответственности за их содержание. Просьба не заливать файлы, защищенные авторскими правами, а также файлы нелегального содержания!
cron