Гуляй, Вася! (2017) BDRip-AVC от ExKinoRay | Лицензия

 
 Статистика раздачи 
Размер: 1.87 ГБ   |  Зарегистрирован: 13 май 2017, 06:32   |   .torrent скачан: 5844 раз
Сидеров: 1791  [ 0 байт/сек ]     Личеров: 151  [ 0 байт/сек ]  
  

Гуляй, Вася! (2017) BDRip-AVC от ExKinoRay | Лицензия

Сообщение apple2000 » 13 май 2017, 06:32

Информация о фильме
Название: Гуляй, Вася!
Год выхода: 2017
Жанр: комедия
Режиссер: Роман Каримов
В ролях: Ефим Петрунин, Любовь Аксёнова, Роман Курцын, Софья Райзман, Борис Дергачев, Сергей Аброскин, Светлана Степанковская, Вера Панфилова, Наталья Тетенова, Давид Петросян
О фильме: Бедный Митя влип по полной: случайно сделал предложение, а отец девушки, как будто только этого и ждал — тут же назначил дату свадьбы. Все бы ничего, да только Митя… уже женат! Он возвращается в свой город, чтобы экстренно развестись. Но Василиса (или просто Вася), с которой они давно не живут, — циничная стерва, и за развод придется побороться. Простейший способ ускорить процесс — предъявить первую попавшуюся «невесту». Кто же знал, что у нее имеется настоящий жених, местный качок… Окончательно все запутывается, когда разруливать ситуацию берутся бывшие одноклассники Мити — подкаблучник Паша и аферист Гарик.



Страна: Россия
Продолжительность: 01:36:02
Перевод: Не требуется

Сохранены оригинальные чаптеры как на Blu-Ray.

Файл
Качество: BDRip (AVC)
Видео: MPEG-4 AVC, 1024x576 (16:9), 24.000 fps, ~2345 kbps avg, 0.166 bit/pixel
Аудио: 48 kHz, AC3 Dolby Digital, 3/2 (L,C,R,l,r) + LFE ch, ~448.00 kbps avg

General
Unique ID : 209994597036401674588165520646028126391 (0x9DFB7CFE8DF4F27B95DB68B4396FE8B7)
Complete name : D:Guliay.Vasyia.2017.BDRip.AVC.ExKinoRay.mkv
Format : Matroska
Format version : Version 2
File size : 1.87 GiB
Duration : 1 h 36 min
Overall bit rate : 2 792 kb/s
Movie name : Гуляй Вася 2017 from ExKinoRay
Encoded date : UTC 2017-05-13 01:20:21
Writing application : mkvmerge v5.8.0 ('No Sleep / Pillow') built on Sep 2 2012 15:37:04
Writing library : libebml v1.2.3 + libmatroska v1.3.0

Video
ID : 1
Format : AVC
Format/Info : Advanced Video Codec
Format profile : [email protected]
Format settings, CABAC : Yes
Format settings, ReFrames : 11 frames
Codec ID : V_MPEG4/ISO/AVC
Duration : 1 h 36 min
Bit rate : 2 345 kb/s
Width : 1 024 pixels
Height : 576 pixels
Display aspect ratio : 16:9
Frame rate mode : Constant
Frame rate : 24.000 FPS
Color space : YUV
Chroma subsampling : 4:2:0
Bit depth : 8 bits
Scan type : Progressive
Bits/(Pixel*Frame) : 0.166
Stream size : 1.54 GiB (82%)
Title : Enigma
Writing library : x264 core 144 r2525 40bb568
Encoding settings : cabac=1 / ref=11 / deblock=1:-2:-2 / analyse=0x3:0x113 / me=umh / subme=10 / psy=1 / psy_rd=1.05:0.10 / mixed_ref=1 / me_range=32 / chroma_me=1 / trellis=2 / 8x8dct=1 / cqm=0 / deadzone=21,11 / fast_pskip=1 / chroma_qp_offset=-3 / threads=12 / lookahead_threads=3 / sliced_threads=0 / nr=0 / decimate=0 / interlaced=0 / bluray_compat=0 / constrained_intra=0 / bframes=10 / b_pyramid=2 / b_adapt=2 / b_bias=0 / direct=3 / weightb=1 / open_gop=0 / weightp=2 / keyint=240 / keyint_min=24 / scenecut=40 / intra_refresh=0 / rc_lookahead=40 / rc=2pass / mbtree=0 / bitrate=2345 / ratetol=1.0 / qcomp=0.60 / qpmin=0 / qpmax=51 / qpstep=4 / cplxblur=20.0 / qblur=0.5 / vbv_maxrate=50000 / vbv_bufsize=62500 / nal_hrd=none / filler=0 / ip_ratio=1.40 / pb_ratio=1.30 / aq=1:1.00
Language : English
Default : Yes
Forced : No
Color range : Limited
Color primaries : BT.709
Transfer characteristics : BT.709
Matrix coefficients : BT.709

Audio
ID : 2
Format : AC-3
Format/Info : Audio Coding 3
Mode extension : CM (complete main)
Format settings, Endianness : Big
Codec ID : A_AC3
Duration : 1 h 36 min
Bit rate mode : Constant
Bit rate : 448 kb/s
Channel(s) : 6 channels
Channel positions : Front: L C R, Side: L R, LFE
Sampling rate : 48.0 kHz
Frame rate : 31.250 FPS (1536 spf)
Compression mode : Lossy
Stream size : 308 MiB (16%)
Title : Лицензия
Language : Russian
Default : Yes
Forced : No

Menu
00:00:00.000 : :Chapter 01
00:00:38.500 : :Chapter 02
00:10:37.208 : :Chapter 03
00:21:31.958 : :Chapter 04
00:33:54.250 : :Chapter 05
00:44:16.250 : :Chapter 06
00:58:07.541 : :Chapter 07
01:09:39.916 : :Chapter 08
01:21:14.416 : :Chapter 09





Релиз от:

Автор релиза:
 
Не забывайте говорить Спасибо. Не уходите с раздачи!   
Торрент: Зарегистрирован [13 май 2017, 06:32] Для скачивания .torrent
необходима регистрация
Или скачать с помощью
MediaGet
Статус:
Проверен
 
.torrent скачан: 5844 раз
Хэш: 38abc98eec62b56e3fb1d178ef1d740be2271aeb
Размер: 1.87 ГБ (2 011 527 742 байт)
Стать Автором раздачи
 
 
Раздал: 0 байт
Скачал: 0 байт
Ратио: Inf.
Сообщения: 30976
Зарегистрирован: 05 окт 2014, 15:23


  • Похожие торренты
    Ответы
    Просмотры
    Последнее сообщение

Вернуться в Отечественное кино

Ресурс не предоставляет электронные версии произведений, а занимается лишь коллекционированием и каталогизацией ссылок, присылаемых и публикуемых на форуме нашими читателями. Если вы являетесь правообладателем какого-либо представленного материала и не желаете чтобы ссылка на него находилась в нашем каталоге, свяжитесь с нами и мы незамедлительно удалим её. Файлы для обмена на трекере предоставлены пользователями сайта, и администрация не несёт ответственности за их содержание. Просьба не заливать файлы, защищенные авторскими правами, а также файлы нелегального содержания!
cron