Одиночка (2017) WEB-DLRip от ImperiaFilm

 
 Статистика раздачи 
Размер: 746.64 МБ   |  Зарегистрирован: 22 май 2017, 01:28   |   .torrent скачан: 2827 раз
Сидеров: 111  [ 0 байт/сек ]     Личеров: 40  [ 0 байт/сек ]  
  

Одиночка (2017) WEB-DLRip от ImperiaFilm

Сообщение explosiveone » 22 май 2017, 01:28

Информация о фильме
Название: Одиночка
Год выхода: 2017
Жанр: Мелодрама
Режиссер: Сергей Гиргель
В ролях: Илья Оболонков, Инна Коляда, Макар Кравченко, Андрей Карако, Зоя Антонова, Марта Голубева, Александра Гайдук, Анна Кисель, Дмитрий Гурбанович, Сергей Широчин, Иван Вабищевич, Евгений Сташевский, Михаил Голденков, Андрей Дробыш

О фильме:
В жизни коренной москвички Юлии «все по полочкам». Если питание – то здоровое, если одежда – то практичная, если работа – то постоянная. Есть у Юли и мужчина – ее непосредственный руководитель Роман. Он, правда, женат, да и Юле постоянно дает понять, что сама по себе она ничего интересного не представляет и без него, конечно же, пропадет. Но ведь ко всему можно привыкнуть. Зато постоянство. Подруга Машка пытается найти для Юли какого-нибудь «приличного мужчину». Но Юля только отмахивается – она одиночка. При этом у героини, которая по образованию социальный педагог-психолог, есть мечта – написать диссертацию и продолжить учебу в аспирантуре.



Премьера: 20 мая 2017
Страна: Россия
Студия: ООО "Тесей Продакшн", Производство "Медиа-Прдакшн"
Продолжительность: 01:43:37
Перевод: Не требуется

Файл
Кодек: XviD
Качество: WEB-DLRip (источник WEB-DL 1080p)
Видео: 624x352 (1.77:1), 25 fps, XviD build 73 ~869 kbps avg, 0.16 bit/pixel
Звук: 44.100 kHz, MPEG Layer 3, 2 ch, ~128.00 kbps avg
Субтитры: Отсутствуют

Семпл

General
Complete name : D:Изготовление рипаOdinochka.2016.WEB-DLRip by shkiper.avi
Format : AVI
Format/Info : Audio Video Interleave
File size : 747 MiB
Duration : 1 h 43 min
Overall bit rate : 1 007 kb/s
Writing application : VirtualDubMod 1.5.10.3 | www.virtualdub-fr.org || (build 2550/release)
Writing library : VirtualDubMod build 2550/release

Video
ID : 0
Format : MPEG-4 Visual
Format profile : Advanced [email protected]
Format settings, BVOP : 1
Format settings, QPel : No
Format settings, GMC : No warppoints
Format settings, Matrix : Custom
Codec ID : XVID
Codec ID/Hint : XviD
Duration : 1 h 43 min
Bit rate : 870 kb/s
Width : 624 pixels
Height : 352 pixels
Display aspect ratio : 16:9
Frame rate : 25.000 FPS
Color space : YUV
Chroma subsampling : 4:2:0
Bit depth : 8 bits
Scan type : Progressive
Compression mode : Lossy
Bits/(Pixel*Frame) : 0.158
Stream size : 645 MiB (86%)
Writing library : XviD 73

Audio
ID : 1
Format : MPEG Audio
Format version : Version 1
Format profile : Layer 3
Codec ID : 55
Codec ID/Hint : MP3
Duration : 1 h 43 min
Bit rate mode : Constant
Bit rate : 128 kb/s
Channel(s) : 2 channels
Sampling rate : 44.1 kHz
Compression mode : Lossy
Stream size : 94.9 MiB (13%)
Alignment : Split accross interleaves
Interleave, duration : 40 ms (1.00 video frame)
Interleave, preload duratio : 500 ms
Writing library : LAME3.99r
Encoding settings : -m s -V 4 -q 2 -lowpass 17 -b 128


Релиз от:
 
Не забывайте говорить Спасибо. Не уходите с раздачи!   
Торрент: Зарегистрирован [22 май 2017, 01:28] Для скачивания .torrent
необходима регистрация
Или скачать с помощью
MediaGet
Статус:
Проверен
 
.torrent скачан: 2827 раз
Хэш: 634b9426c2a91f442d8cc7b9c59ec9cf76aaa066
Размер: 746.64 МБ (782 911 488 байт)
Стать Автором раздачи
 
 
Раздал: 100 ГБ
Скачал: 0 байт
Ратио: Seed.
Сообщения: 95496
Зарегистрирован: 09 апр 2015, 22:31


  • Похожие торренты
    Ответы
    Просмотры
    Последнее сообщение

Вернуться в Отечественное кино

Ресурс не предоставляет электронные версии произведений, а занимается лишь коллекционированием и каталогизацией ссылок, присылаемых и публикуемых на форуме нашими читателями. Если вы являетесь правообладателем какого-либо представленного материала и не желаете чтобы ссылка на него находилась в нашем каталоге, свяжитесь с нами и мы незамедлительно удалим её. Файлы для обмена на трекере предоставлены пользователями сайта, и администрация не несёт ответственности за их содержание. Просьба не заливать файлы, защищенные авторскими правами, а также файлы нелегального содержания!
cron