Три дня до весны (2017) DVDRip от Portablius

 
 Статистика раздачи 
Размер: 696.22 МБ   |  Зарегистрирован: 25 май 2017, 15:32   |   .torrent скачан: 19019 раз
Сидеров: 1637  [ 0 байт/сек ]     Личеров: 134  [ 0 байт/сек ]  
  

Три дня до весны (2017) DVDRip от Portablius

Сообщение explosiveone » 25 май 2017, 15:32

Информация о фильме
Оригинальное название: Три дня до весны
Год выхода: 2017
Жанр: Военный, детектив
Режиссер: Александр Касаткин
В ролях: Евгений Сидихин, Юрий Ицков, Владислав Абашин, Полина Красавина, Игорь Грабузов, Кирилл Плетнёв, Елена Лотова

О фильме: Ленинград, февраль 1942 года. У офицера госбезопасности Андреева и молодого врача Марицкой есть всего 72 часа, чтобы предотвратить катастрофу. Жизнь и смерть, любовь и предательство переплетаются в стремительно развивающихся событиях…




Страна: Россия
Студия: Ленфильм
Продолжительность: 01:39:10
Перевод: Не требуется (русский) | Лицензия
Субтитры: Нет

Файл
Кодек: XviD
Качество: DVDRip
Видео: 720x304 (2.37:1), 25 fps, XviD build 73 ~843 kbps avg, 0.15 bit/pixel
Звук: 48 kHz, MPEG Layer 3, 2 ch, ~128.00 kbps avg

Общее
Полное имя : Tri.Dnya.Do.Vesny.2017.DVDRip.ot.Portablius.avi
Формат : AVI
Формат/Информация : Audio Video Interleave
Размер файла : 696 Мбайт
Продолжительность : 1 ч. 39 м.
Общий поток : 981 Кбит/сек
Программа кодирования : VirtualDubMod 1.5.10.3 | www.virtualdub-fr.org || (build 2550/release)
Библиотека кодирования : VirtualDubMod build 2550/release

Видео
Идентификатор : 0
Формат : MPEG-4 Visual
Профиль формата : Advanced [email protected]
Параметр BVOP формата : 1
Параметр QPel формата : Нет
Параметр GMC формата : Без точки перехода
Параметр матрицы формата : Выборочная
Идентификатор кодека : XVID
Идентификатор кодека/Подсказка : XviD
Продолжительность : 1 ч. 39 м.
Битрейт : 844 Кбит/сек
Ширина : 720 пикселей
Высота : 304 пикселя
Соотношение сторон : 2,35:1
Частота кадров : 25,000 кадров/сек
Цветовое пространство : YUV
Субдискретизация насыщенности : 4:2:0
Битовая глубина : 8 бит
Тип развёртки : Прогрессивная
Метод сжатия : С потерями
Бит/(Пиксели*Кадры) : 0.154
Размер потока : 599 Мбайт (86%)
Библиотека кодирования : XviD 73

Аудио
Идентификатор : 1
Формат : MPEG Audio
Версия формата : Version 1
Профиль формата : Layer 3
Идентификатор кодека : 55
Идентификатор кодека/Подсказка : MP3
Продолжительность : 1 ч. 39 м.
Вид битрейта : Постоянный
Битрейт : 128 Кбит/сек
Каналы : 2 канала
Частота : 48,0 КГц
Метод сжатия : С потерями
Размер потока : 90,8 Мбайт (13%)
Выравнивание : Соединение по промежуткам
Продолжительность промежутка : 40 мс. (1,00 видеокадр)
Время предзагрузки промежутка : 504 мс.
Библиотека кодирования : LAME3.99r
Настройки программы : -m s -V 4 -q 2 -lowpass 17 -b 128

 
Не забывайте говорить Спасибо. Не уходите с раздачи!   
Торрент: Зарегистрирован [25 май 2017, 15:32] Для скачивания .torrent
необходима регистрация
Или скачать с помощью
MediaGet
Статус:
Проверен
 
.torrent скачан: 19019 раз
Хэш: f08934cbca4a26c7d13c07930d3141ac005773f6
Размер: 696.22 МБ (730 042 368 байт)
Стать Автором раздачи
 
 
Раздал: 100 ГБ
Скачал: 0 байт
Ратио: Seed.
Сообщения: 95484
Зарегистрирован: 09 апр 2015, 22:31


  • Похожие торренты
    Ответы
    Просмотры
    Последнее сообщение

Вернуться в Отечественное кино

Ресурс не предоставляет электронные версии произведений, а занимается лишь коллекционированием и каталогизацией ссылок, присылаемых и публикуемых на форуме нашими читателями. Если вы являетесь правообладателем какого-либо представленного материала и не желаете чтобы ссылка на него находилась в нашем каталоге, свяжитесь с нами и мы незамедлительно удалим её. Файлы для обмена на трекере предоставлены пользователями сайта, и администрация не несёт ответственности за их содержание. Просьба не заливать файлы, защищенные авторскими правами, а также файлы нелегального содержания!
cron