Кухня. Последняя битва (2017) WEB-DLRip-AVC от OlLanDGroup | iTunes

 
 Статистика раздачи 
Размер: 1.46 ГБ   |  Зарегистрирован: 30 май 2017, 14:28   |   .torrent скачан: 7942 раз
Сидеров: 607  [ 0 байт/сек ]     Личеров: 55  [ 0 байт/сек ]  
  

Кухня. Последняя битва (2017) WEB-DLRip-AVC от OlLanDGroup | iTunes

Сообщение explosiveone » 30 май 2017, 14:28

Кухня. Последняя битва
«Вкусная комедия»



Год выпуска: 2017
Страна: Россия
Производство: Централ Партнершип
Жанр: Комедия

Режиссёр: Антон Федотов
В ролях: Дмитрий Назаров, Дмитрий Нагиев, Сергей Лавыгин, Олег Табаков, Анфиса Черных, Кирилл Ковбас, Сергей Епишев, Михаил Тарабукин, Никита Тарасов, Михаил Башкатов

Перевод: Не требуется [iTunes]
Субтитры: нет
Описание: Раньше Ивана интересовали только шифровальные коды и хакерские программы, но всё меняется, когда он встречает красотку-француженку Анну со взрывным характером и русскими корнями. Оба летят в Сочи, чтобы принять участие в Чемпионате мира среди поваров: она выступает за Францию, а он - за Россию. Но Ивану ещё нужно разобраться в отношениях с недавно возникшим в его жизни папой - знаменитым шеф-поваром Виктором Бариновым, заслужить доверие его кулинарной суперкоманды, избежать тюрьмы за взлом сайта Минобороны и... помочь телеведущему Дмитрию Нагиеву сбежать из горного села в Абхазии, где его заставляют жениться.



Релиз от:

Качество: WEB-DLRip-AVC
Продолжительность: 01:54:27

Формат: MKV
Видео кодек: MPEG-4 AVC
Аудио кодек: AC3
Видео: 720x302 (2,40:1), 24,000 fps, x264 ~1440 kbps avg, 0.276 bit/pixel
Аудио: AC3, 48 kHz, 6 ch, ~384.00 kbps avg | русский | iTunes

Дата премьеры (Мир): 20 апреля 2017, ...
Дата премьеры (РФ): 20 апреля 2017, «Централ Партнершип»


Общее
Уникальный идентификатор : 179790712822337646379552673415598910217 (0x87426E877A4EBDD188C2DFC38F5F2B09)
Полное имя : D:TempKuxH1a.p0CL.b1tBa.2O17.WEB-DLRip-AVC.1.46Gb.OlLanDGroup.mkv
Формат : Matroska
Версия формата : Version 4 / Version 2
Размер файла : 1,46 Гбайт
Продолжительность : 1 ч. 54 м.
Общий поток : 1825 Кбит/сек
Название фильма : OlLanDGroup
Дата кодирования : UTC 2017-05-30 10:12:33
Программа кодирования : mkvmerge v12.0.0 ('Trust / Lust') 64bit
Библиотека кодирования : libebml v1.3.4 + libmatroska v1.4.5
DURATION : 01:54:27.296000000
NUMBER_OF_FRAMES : 214603
NUMBER_OF_BYTES : 329630208
_STATISTICS_WRITING_APP : mkvmerge v12.0.0 ('Trust / Lust') 64bit
_STATISTICS_WRITING_DATE_UTC : 2017-05-30 10:12:33
_STATISTICS_TAGS : BPS DURATION NUMBER_OF_FRAMES NUMBER_OF_BYTES

Видео
Идентификатор : 1
Формат : AVC
Формат/Информация : Advanced Video Codec
Профиль формата : [email protected]
Параметр CABAC формата : Да
Параметр ReFrames формата : 10 кадров
Идентификатор кодека : V_MPEG4/ISO/AVC
Продолжительность : 1 ч. 54 м.
Битрейт : 1440 Кбит/сек
Ширина : 720 пикселей
Высота : 302 пикселя
Соотношение сторон : 2,40:1
Режим частоты кадров : Постоянный
Частота кадров : 24,000 кадра/сек
Цветовое пространство : YUV
Субдискретизация насыщенности : 4:2:0
Битовая глубина : 8 бит
Тип развёртки : Прогрессивная
Бит/(Пиксели*Кадры) : 0.276
Размер потока : 1,12 Гбайт (77%)
Заголовок : OlLanDGroup
Библиотека кодирования : x264 core 146 r2538 121396c
Настройки программы : cabac=1 / ref=10 / deblock=1:-3:-3 / analyse=0x3:0x133 / me=umh / subme=11 / psy=1 / psy_rd=1.00:0.06 / mixed_ref=1 / me_range=48 / chroma_me=1 / trellis=2 / 8x8dct=1 / cqm=0 / deadzone=21,11 / fast_pskip=0 / chroma_qp_offset=-3 / threads=6 / lookahead_threads=1 / sliced_threads=0 / nr=0 / decimate=0 / interlaced=0 / bluray_compat=0 / constrained_intra=0 / bframes=10 / b_pyramid=2 / b_adapt=2 / b_bias=0 / direct=3 / weightb=1 / open_gop=0 / weightp=2 / keyint=240 / keyint_min=23 / scenecut=40 / intra_refresh=0 / rc_lookahead=40 / rc=2pass / mbtree=0 / bitrate=1440 / ratetol=1.0 / qcomp=0.60 / qpmin=0 / qpmax=69 / qpstep=4 / cplxblur=20.0 / qblur=0.5 / vbv_maxrate=50000 / vbv_bufsize=62500 / nal_hrd=none / filler=0 / ip_ratio=1.40 / pb_ratio=1.30 / aq=1:1.00
Язык : Russian
Default : Да
Forced : Нет
Основные цвета : BT.709
Характеристики трансфера : BT.709
Коэффициенты матрицы : BT.709

Аудио
Идентификатор : 2
Формат : AC-3
Формат/Информация : Audio Coding 3
Расширение режима : CM (complete main)
Параметр Endianness формата : Big
Идентификатор кодека : A_AC3
Продолжительность : 1 ч. 54 м.
Вид битрейта : Постоянный
Битрейт : 384 Кбит/сек
Каналы : 6 каналов
Расположение каналов : Front: L C R, Side: L R, LFE
Частота : 48,0 КГц
Битовая глубина : 16 бит
Метод сжатия : С потерями
Размер потока : 314 Мбайт (21%)
Язык : Russian
Default : Да
Forced : Нет

Меню
00:00:00.000 : ru:Chapter 01
00:08:16.291 : ru:Chapter 02
00:14:15.291 : ru:Chapter 03
00:19:46.791 : ru:Chapter 04
00:25:36.916 : ru:Chapter 05
00:31:07.707 : ru:Chapter 06
00:36:05.665 : ru:Chapter 07
00:40:32.123 : ru:Chapter 08
00:45:41.581 : ru:Chapter 09
00:51:49.831 : ru:Chapter 10
00:57:08.331 : ru:Chapter 11
01:02:08.914 : ru:Chapter 12
01:07:32.455 : ru:Chapter 13
01:13:25.038 : ru:Chapter 14
01:20:09.954 : ru:Chapter 15
01:25:36.287 : ru:Chapter 16
01:30:28.828 : ru:Chapter 17
01:36:18.953 : ru:Chapter 18
01:42:06.786 : ru:Chapter 19


 
Не забывайте говорить Спасибо. Не уходите с раздачи!   
Торрент: Зарегистрирован [30 май 2017, 14:28] Для скачивания .torrent
необходима регистрация
Или скачать с помощью
MediaGet
Статус:
Проверен
 
.torrent скачан: 7942 раз
Хэш: 46835d1be3c58c78951cb5d4fa07985c856fafc4
Размер: 1.46 ГБ (1 566 267 090 байт)
Стать Автором раздачи
 
 
Раздал: 100 ГБ
Скачал: 0 байт
Ратио: Seed.
Сообщения: 96975
Зарегистрирован: 09 апр 2015, 22:31


  • Похожие торренты
    Ответы
    Просмотры
    Последнее сообщение

Вернуться в Отечественное кино

Ресурс не предоставляет электронные версии произведений, а занимается лишь коллекционированием и каталогизацией ссылок, присылаемых и публикуемых на форуме нашими читателями. Если вы являетесь правообладателем какого-либо представленного материала и не желаете чтобы ссылка на него находилась в нашем каталоге, свяжитесь с нами и мы незамедлительно удалим её. Файлы для обмена на трекере предоставлены пользователями сайта, и администрация не несёт ответственности за их содержание. Просьба не заливать файлы, защищенные авторскими правами, а также файлы нелегального содержания!
cron