Кухня. Последняя битва (2017) BDRip-AVC от R.G.Resident | Лицензия

 
 Статистика раздачи 
Размер: 2.12 ГБ   |  Зарегистрирован: 16 июн 2017, 18:21   |   .torrent скачан: 1203 раз
Сидеров: 497  [ 0 байт/сек ]     Личеров: 88  [ 0 байт/сек ]  
  

Кухня. Последняя битва (2017) BDRip-AVC от R.G.Resident | Лицензия

Сообщение graf_t » 16 июн 2017, 18:21

Информация о фильме
Название: Кухня. Последняя битва
Год выпуска: 2017
Страна: Россия
Жанр: комедия

Перевод: Не требуется [Русский] (Лицензия)
Продолжительность: 01:54:27

Режиссер: Антон Федотов
В ролях: Дмитрий Назаров (Виктор Баринов), Дмитрий Нагиев (Дмитрий Нагиев), Сергей Лавыгин (Сеня), Олег Табаков, Анфиса Черных (Анна, повар сборной Франции), Кирилл Ковбас (Иван, сын шефа Баринова), Сергей Епишев, Михаил Тарабукин, Никита Тарасов, Михаил Башкатов, Марина Могилевская, Валерия Федорович


Описание:
Раньше Ивана интересовали только шифровальные коды и хакерские программы, но всё меняется, когда он встречает красотку-француженку Анну со взрывным характером и русскими корнями. Оба летят в Сочи, чтобы принять участие в Чемпионате мира среди поваров: она выступает за Францию, а он - за Россию. Но Ивану ещё нужно разобраться в отношениях с недавно возникшим в его жизни папой - знаменитым шеф-поваром Виктором Бариновым, заслужить доверие его кулинарной суперкоманды, избежать тюрьмы за взлом сайта Минобороны и... помочь телеведущему Дмитрию Нагиеву сбежать из горного села в Абхазии, где его заставляют жениться.

Рейтинг:


Качество: BDRip-AVC
Формат: MKV
Видео: AVC, 1024x428 (2.40:1), 2207 kbps, 24 fps, 0,210 bpp
Аудио: русский / AC3 / 5.1 / 48 kHz / 448 kbps / |Оригинал|
Сэмпл


Релиз от:


General
Unique ID : 209933219283209650171294702681835746149 (0x9DEFAAD6653A709CBA0C812AD438B365)
Complete name : E:Kuhnya.Poslednyaya.bitva.2017.BDRip.AVC.R.G.Resident.mkv
Format : Matroska
Format version : Version 4 / Version 2
File size : 2.12 GiB
Duration : 1 h 54 min
Overall bit rate : 2 655 kb/s
Movie name : Кухня. Последняя битва (2017) BDRip-AVC от R.G. Resident
Encoded date : UTC 2017-06-16 14:17:44
Writing application : mkvmerge v12.0.0 ('Trust / Lust') 64bit
Writing library : libebml v1.3.4 + libmatroska v1.4.5
Cover : Yes
Attachments : cover.jpg

Video
ID : 1
Format : AVC
Format/Info : Advanced Video Codec
Format profile : [email protected]
Format settings, CABAC : Yes
Format settings, ReFrames : 11 frames
Codec ID : V_MPEG4/ISO/AVC
Duration : 1 h 54 min
Bit rate : 2 207 kb/s
Width : 1 024 pixels
Height : 428 pixels
Display aspect ratio : 2.40:1
Frame rate mode : Constant
Frame rate : 24.000 FPS
Color space : YUV
Chroma subsampling : 4:2:0
Bit depth : 8 bits
Scan type : Progressive
Bits/(Pixel*Frame) : 0.210
Stream size : 1.76 GiB (83%)
Title : -Lexx-
Writing library : x264 core 150 r2833kMod df79067
Encoding settings : cabac=1 / ref=11 / deblock=1:-3:-3 / analyse=0x3:0x113 / me=umh / subme=11 / psy=1 / fade_compensate=0.00 / psy_rd=1.00:0.15 / mixed_ref=1 / me_range=48 / chroma_me=1 / trellis=2 / 8x8dct=1 / cqm=0 / deadzone=21,11 / fast_pskip=0 / chroma_qp_offset=-3 / threads=12 / lookahead_threads=3 / sliced_threads=0 / nr=0 / decimate=0 / interlaced=0 / bluray_compat=0 / constrained_intra=0 / bframes=11 / b_pyramid=2 / b_adapt=2 / b_bias=0 / direct=3 / weightb=1 / open_gop=0 / weightp=2 / keyint=240 / keyint_min=24 / scenecut=40 / intra_refresh=0 / rc_lookahead=40 / rc=2pass / mbtree=0 / bitrate=2207 / ratetol=1.0 / qcomp=0.60 / qpmin=0 / qpmax=69 / qpstep=4 / cplxblur=20.0 / qblur=0.5 / vbv_maxrate=50000 / vbv_bufsize=62500 / nal_hrd=none / filler=0 / ip_ratio=1.40 / pb_ratio=1.30 / aq=1:1.00
Language : English
Default : Yes
Forced : No
Color range : Limited
Color primaries : BT.709
Transfer characteristics : BT.709
Matrix coefficients : BT.709

Audio
ID : 2
Format : AC-3
Format/Info : Audio Coding 3
Mode extension : CM (complete main)
Format settings, Endianness : Big
Codec ID : A_AC3
Duration : 1 h 54 min
Bit rate mode : Constant
Bit rate : 448 kb/s
Channel(s) : 6 channels
Channel positions : Front: L C R, Side: L R, LFE
Sampling rate : 48.0 kHz
Frame rate : 31.250 FPS (1536 spf)
Compression mode : Lossy
Stream size : 367 MiB (17%)
Title : Оригинал
Language : Russian
Default : Yes
Forced : No

 
Не забывайте говорить Спасибо. Не уходите с раздачи!   
Торрент: Зарегистрирован [16 июн 2017, 18:21] Для скачивания .torrent
необходима регистрация
Или скачать с помощью
MediaGet
Статус:
Проверен
 
.torrent скачан: 1203 раз
Хэш: 1a49c7715291b0598fbac2b079df440d15779ead
Размер: 2.12 ГБ (2 278 861 585 байт)
Стать Автором раздачи
 
 
Раздал: 100 ГБ
Скачал: 0 байт
Ратио: Seed.
Сообщения: 51222
Зарегистрирован: 31 мар 2015, 18:04


  • Похожие торренты
    Ответы
    Просмотры
    Последнее сообщение

Вернуться в Отечественное кино

Ресурс не предоставляет электронные версии произведений, а занимается лишь коллекционированием и каталогизацией ссылок, присылаемых и публикуемых на форуме нашими читателями. Если вы являетесь правообладателем какого-либо представленного материала и не желаете чтобы ссылка на него находилась в нашем каталоге, свяжитесь с нами и мы незамедлительно удалим её. Файлы для обмена на трекере предоставлены пользователями сайта, и администрация не несёт ответственности за их содержание. Просьба не заливать файлы, защищенные авторскими правами, а также файлы нелегального содержания!
cron