Гуляй, Вася! (2017) BDRip 720p от KinoGadget | iPad | Лицензия

 
 Статистика раздачи 
Размер: 2.5 ГБ   |  Зарегистрирован: 03 июл 2017, 20:09   |   .torrent скачан: 1261 раз
Сидеров: 306  [ 0 байт/сек ]     Личеров: 47  [ 0 байт/сек ]  
  

Гуляй, Вася! (2017) BDRip 720p от KinoGadget | iPad | Лицензия

Сообщение graf_t » 03 июл 2017, 20:09

Год выпуска: 2017
Оригинальное название: Гуляй, Вася!
Страна: Россия
Жанр: комедия
Возраст: 16+

Режиссер: Роман Каримов

В ролях: Ефим Петрунин, Любовь Аксёнова, Роман Курцын, Софья Райзман, Борис Дергачев, Сергей Аброскин, Светлана Степанковская, Вера Панфилова, Наталья Тетенова, Давид Петросян

Описание: Бедный Митя влип по полной: случайно сделал предложение, а отец девушки, как будто только этого и ждал — тут же назначил дату свадьбы. Все бы ничего, да только Митя… уже женат! Он возвращается в свой город, чтобы экстренно развестись. Но Василиса (или просто Вася), с которой они давно не живут, — циничная стерва, и за развод придется побороться. Простейший способ ускорить процесс — предъявить первую попавшуюся «невесту». Кто же знал, что у нее имеется настоящий жених, местный качок… Окончательно все запутывается, когда разруливать ситуацию берутся бывшие одноклассники Мити — подкаблучник Паша и аферист Гарик.

Продолжительность: 01:36:02
Перевод: Не требуется
Оригинальная дорожка: Есть

Автор рипа:

Качество видео: BDRip 720p Исходник: Blu-Ray Remux (1080p) Формат: mp4
Видео кодек: MPEG-4 AVC Аудио кодек: AAC
Видео: 1280x720 (16:9) at 24.000 fps, AVC at 3 586 kbps avg, 0.162 bit/pixel
Аудио №1 Rus: 48.0 KHz, AAC, 2 ch, 128.0 Kbps
Субтитры: нет
Навигация по главам: нет
Размер: 2.50 GiB

avs [info]: 1280x720p 1:1 @ 24/1 fps (cfr)
x264 [info]: using SAR=1/1
x264 [info]: using cpu capabilities: MMX2 SSE2Fast SSSE3 Cache64
x264 [info]: profile High, level 4.1
x264 [info]: frame I:1494 Avg QP:14.64 size:123634
x264 [info]: frame P:31552 Avg QP:17.97 size: 39696
x264 [info]: frame B:105258 Avg QP:20.48 size: 10886
x264 [info]: consecutive B-frames: 1.9% 2.4% 8.2% 33.3% 24.8% 23.2% 6.2%
x264 [info]: mb I I16..4: 5.9% 76.0% 18.1%
x264 [info]: mb P I16..4: 2.1% 12.2% 1.4% P16..4: 42.2% 23.6% 12.2% 0.0% 0.0% skip: 6.2%
x264 [info]: mb B I16..4: 0.2% 1.0% 0.2% B16..8: 39.2% 7.9% 1.7% direct: 7.4% skip:42.5% L0:41.7% L1:46.2% BI:12.2%
x264 [info]: 8x8 transform intra:76.2% inter:67.2%
x264 [info]: coded y,uvDC,uvAC intra: 73.5% 87.6% 63.1% inter: 20.3% 31.3% 8.2%
x264 [info]: i16 v,h,dc,p: 24% 15% 6% 54%
x264 [info]: i8 v,h,dc,ddl,ddr,vr,hd,vl,hu: 20% 16% 17% 5% 9% 9% 9% 8% 7%
x264 [info]: i4 v,h,dc,ddl,ddr,vr,hd,vl,hu: 23% 17% 10% 6% 11% 10% 9% 7% 6%
x264 [info]: i8c dc,h,v,p: 47% 19% 22% 12%
x264 [info]: Weighted P-Frames: Y:2.0% UV:1.2%
x264 [info]: ref P L0: 51.2% 12.0% 15.3% 5.9% 4.8% 3.6% 3.2% 1.9% 2.0% 0.0% 0.0%
x264 [info]: ref B L0: 82.6% 8.1% 3.9% 1.8% 1.4% 1.2% 0.8% 0.3%
x264 [info]: ref B L1: 96.4% 3.6%
x264 [info]: kb/s:3585.91
encoded 138304 frames, 1.89 fps, 3585.91 kb/s

General
Complete name : ...Gulyaj_vasya_2017_KinoGadget.mp4
Format : MPEG-4
Format profile : Base Media
Codec ID : isom (isom)
File size : 2.50 GiB
Duration : 1 h 36 min
Overall bit rate mode : Variable
Overall bit rate : 3 722 kb/s
Movie name : Гуляй, Вася! | KinoGadget
Performer : Роман Каримов
Director : Роман Каримов
Actor : Ефим Петрунин / Любовь Аксёнова / Роман Курцын / Софья Райзман / Борис Дергачев / Сергей Аброскин / Светлана Степанковская / Вера Панфилова / Наталья Тетенова / Давид Петросян
Screenplay by : Роман Каримов / Яна Лебедева
Producer : Андрей Новиков / Александр Котелевский / Эдуард Илоян
Genre : Comedy
ContentType : Short Film
Recorded date : 2017
Encoded date : UTC 2017-07-03 15:24:22
Tagged date : UTC 2017-07-03 16:17:22
Cover : Yes
ContentRating : mpaa|PG-13|300|
LongDeion : Бедный Митя влип по полной: случайно сделал предложение, а отец девушки, как будто только этого и ждал — тут же назначил дату свадьбы. Все бы ничего, да только Митя… уже женат! Он возвращается в свой город, чтобы экстренно развестись. Но Василиса (или просто Вася), с которой они давно не живут, — циничная стерва, и за развод придется побороться. Простейший способ ускорить процесс — предъявить первую попавшуюся «невесту». Кто же знал, что у нее имеется настоящий жених, местный качок… Окончательно все запутывается, когда разруливать ситуацию берутся бывшие одноклассники Мити — подкаблучник Паша и аферист Гарик.
HDVideo : Yes

Video
ID : 1
Format : AVC
Format/Info : Advanced Video Codec
Format profile : [email protected]
Format settings, CABAC : Yes
Format settings, ReFrames : 9 frames
Codec ID : avc1
Codec ID/Info : Advanced Video Coding
Duration : 1 h 36 min
Bit rate : 3 586 kb/s
Maximum bit rate : 17.2 Mb/s
Width : 1 280 pixels
Height : 720 pixels
Display aspect ratio : 16:9
Frame rate mode : Constant
Frame rate : 24.000 FPS
Color space : YUV
Chroma subsampling : 4:2:0
Bit depth : 8 bits
Scan type : Progressive
Bits/(Pixel*Frame) : 0.162
Stream size : 2.41 GiB (96%)
Writing library : x264 core 148 r2744 b97ae06
Encoding settings : cabac=1 / ref=9 / deblock=1:-2:-1 / analyse=0x3:0x113 / me=umh / subme=7 / psy=1 / psy_rd=1.00:0.00 / mixed_ref=1 / me_range=32 / chroma_me=1 / trellis=2 / 8x8dct=1 / cqm=0 / deadzone=21,11 / fast_pskip=0 / chroma_qp_offset=-2 / threads=3 / lookahead_threads=1 / sliced_threads=0 / nr=0 / decimate=1 / interlaced=0 / bluray_compat=0 / constrained_intra=0 / bframes=6 / b_pyramid=2 / b_adapt=2 / b_bias=0 / direct=1 / weightb=1 / open_gop=0 / weightp=2 / keyint=250 / keyint_min=25 / scenecut=40 / intra_refresh=0 / rc_lookahead=60 / rc=crf / mbtree=1 / crf=18.0 / qcomp=0.60 / qpmin=0 / qpmax=69 / qpstep=4 / vbv_maxrate=62500 / vbv_bufsize=78125 / crf_max=0.0 / nal_hrd=none / filler=0 / ip_ratio=1.40 / aq=1:1.00
Encoded date : UTC 2017-07-03 14:01:06
Tagged date : UTC 2017-07-03 15:25:30

Audio
ID : 2
Format : AAC
Format/Info : Advanced Audio Codec
Format profile : LC
Codec ID : 40
Duration : 1 h 36 min
Bit rate mode : Variable
Bit rate : 128 kb/s
Maximum bit rate : 135 kb/s
Channel(s) : 2 channels
Channel positions : Front: L R
Sampling rate : 48.0 kHz
Frame rate : 46.875 FPS (1024 spf)
Compression mode : Lossy
Stream size : 87.9 MiB (3%)
Language : Russian
Encoded date : UTC 2017-06-30 14:23:06
Tagged date : UTC 2017-07-03 15:25:30



Данный рип предназначен для просмотра на мобильных гаджетах с поддержкой формата mp4
 
Не забывайте говорить Спасибо. Не уходите с раздачи!   
Торрент: Зарегистрирован [03 июл 2017, 20:09] Для скачивания .torrent
необходима регистрация
Или скачать с помощью
MediaGet
Статус:
Проверен
 
.torrent скачан: 1261 раз
Хэш: 9488bc1680e83da5e4120d7259a099dd710f22aa
Размер: 2.5 ГБ (2 680 888 769 байт)
Стать Автором раздачи
 
 
Раздал: 100 ГБ
Скачал: 0 байт
Ратио: Seed.
Сообщения: 50620
Зарегистрирован: 31 мар 2015, 18:04


  • Похожие торренты
    Ответы
    Просмотры
    Последнее сообщение

Вернуться в Отечественное кино

Ресурс не предоставляет электронные версии произведений, а занимается лишь коллекционированием и каталогизацией ссылок, присылаемых и публикуемых на форуме нашими читателями. Если вы являетесь правообладателем какого-либо представленного материала и не желаете чтобы ссылка на него находилась в нашем каталоге, свяжитесь с нами и мы незамедлительно удалим её. Файлы для обмена на трекере предоставлены пользователями сайта, и администрация не несёт ответственности за их содержание. Просьба не заливать файлы, защищенные авторскими правами, а также файлы нелегального содержания!
cron