Я любить тебя буду, можно? (Мария Ефремова) [2017, Россия, мелодрама, WEB-DLRip]

 
 Статистика раздачи 
Размер: 723.3 МБ   |  Зарегистрирован: 11 июл 2017, 13:42   |   .torrent скачан: 0 раз
Сидеров: 80  [ 0 байт/сек ]     Личеров: 26  [ 0 байт/сек ]  
  

Я любить тебя буду, можно? (Мария Ефремова) [2017, Россия, мелодрама, WEB-DLRip]

Сообщение Nakazhu » 11 июл 2017, 13:42

Я любить тебя буду, можно?
Жанр: мелодрама
Год выпуска: 2017
Продолжительность: 0:54:30
Режиссёр: Мария Ефремова
В ролях: Анатолий Белый, Мария Ефремова, Андрей Чадов, Алёна Яковлева, Мария Берсенева, Михаил Полицеймако, Елена Захарова, Малена Маяковская, Дмитрий Малашенко, Сергей Канаев
Описание: Вадим и Катя давно живут вместе, но не смотря на внешнее благополучие их пары, в глубине души девушку не устраивает, что любимый не спешит официально оформить отношения. Все подруги давно пошли под венец, и на очередном девичнике Катя знакомится с журналистом Сергеем...
Персонажи фильма разговаривают стихами Эдуарда Асадова.
Семпл/
Исходник -- WEB-DL 1080p
Качество видео: WEB-DLRip
Формат видео: AVI
Видео: 704x384, 24 fps, XviD, 1654 kbps, 0.255 bit/pixel
Аудио: 48 kHz, AC3, 2 ch, 192 kbps
General
Complete name : E:\I.Will.Love.You.One.Can.2017.avi
Format : AVI
Format/Info : Audio Video Interleave
File size : 723 MiB
Duration : 54mn 30s
Overall bit rate : 1 855 Kbps
Writing application : VirtualDubMod 1.5.10.3 | www.virtualdub-fr.org || (build 2550/release)
Writing library : VirtualDubMod build 2550/release
Video
ID : 0
Format : MPEG-4 Visual
Format profile : Advanced [email protected]
Format settings, BVOP : Yes
Format settings, QPel : No
Format settings, GMC : No warppoints
Format settings, Matrix : Default (MPEG)
Codec ID : XVID
Codec ID/Hint : XviD
Duration : 54mn 30s
Bit rate : 1 654 Kbps
Width : 704 pixels
Height : 384 pixels
Display aspect ratio : 16:9
Frame rate : 24.000 fps
Resolution : 8 bits
Colorimetry : 4:2:0
Scan type : Progressive
Bits/(Pixel*Frame) : 0.255
Stream size : 645 MiB (89%)
Writing library : XviD 73
Audio
ID : 1
Format : AC-3
Format/Info : Audio Coding 3
Format_Settings_ModeExtension : CM (complete main)
Codec ID : 2000
Duration : 54mn 30s
Bit rate mode : Constant
Bit rate : 192 Kbps
Channel(s) : 2 channels
Channel positions : Front: L R
Sampling rate : 48.0 KHz
Stream size : 74.9 MiB (10%)
Alignment : Split accross interleaves
Interleave, duration : 42 ms (1.00 video frame)
Interleave, preload duration : 500 ms
 
Не забывайте говорить Спасибо. Не уходите с раздачи!   
Торрент: Зарегистрирован [11 июл 2017, 13:42] Для скачивания .torrent
необходима регистрация
Или скачать с помощью
MediaGet
Статус:
Проверен
 
.torrent скачан: 0 раз
Хэш: 8de3a5101b9616177b2da86195e00c21a3814973
Размер: 723.3 МБ (758 433 792 байт)
Стать Автором раздачи
 
 
Раздал: 0 байт
Скачал: 0 байт
Ратио: Inf.
Сообщения: 439675
Зарегистрирован: 17 апр 2014, 13:57


  • Похожие торренты
    Ответы
    Просмотры
    Последнее сообщение

Вернуться в Отечественное кино

Ресурс не предоставляет электронные версии произведений, а занимается лишь коллекционированием и каталогизацией ссылок, присылаемых и публикуемых на форуме нашими читателями. Если вы являетесь правообладателем какого-либо представленного материала и не желаете чтобы ссылка на него находилась в нашем каталоге, свяжитесь с нами и мы незамедлительно удалим её. Файлы для обмена на трекере предоставлены пользователями сайта, и администрация не несёт ответственности за их содержание. Просьба не заливать файлы, защищенные авторскими правами, а также файлы нелегального содержания!
cron