Стражи Галактики. Часть 2 / Guardians of the Galaxy Vol. 2 (Джеймс Ганн / James Gunn ) [2017, США, Фантастика, боевик, приключения, BDRip, HD (720p)] DUB + Original + sub (rus, eng)

 
 Статистика раздачи 
Размер: 4.58 ГБ   |  Зарегистрирован: 12 авг 2017, 10:42   |   .torrent скачан: 0 раз
Сидеров: 136  [ 0 байт/сек ]     Личеров: 44  [ 0 байт/сек ]  
  

Стражи Галактики. Часть 2 / Guardians of the Galaxy Vol. 2 (Джеймс Ганн / James Gunn ) [2017, США, Фантастика, боевик, приключения, BDRip, HD (720p)] DUB + Original + sub (rus, eng)

Сообщение Nakazhu » 12 авг 2017, 10:42

Стражи Галактики. Часть 2 / Guardians of the Galaxy Vol. 2

«This summer, the galaxy won't save itself»
7.619 / 10 8.10 / 10
Год выпуска: 2017
Страна: США
Жанр: Фантастика, боевик, приключения
Продолжительность: 02:15:46
Перевод: Дублированный (iTunes)
Оригинальная аудиодорожка: Есть
Cубтитры: Русские форсированные, Английские форсированные, Русские, Английские
Режиссёр: Джеймс Ганн
Сценарий: Джеймс Ганн, Дэн Абнетт, Энди Леннинг
Продюсер: Виктория Алонсо, Луис Д’Эспозито, Кевин Файги
Оператор: Генри Брэхам
Композитор: Тайлер Бейтс
Художник: Скотт Чамблисс, Елена Альбанезе, Рэмси Эйвери
Монтаж: Фред Раскин, Крэйг Вуд
В ролях: Крис Пратт, Зои Салдана, Дэйв Батиста, Вин Дизель, Брэдли Купер, Майкл Рукер, Карен Гиллан, Пом Клементьефф, Элизабет Дебики, Курт Рассел
Бюджет: $200 000 000
Сборы в США: $388 390 435
Сборы в мире: + $472 986 642 = $861 608 590
Сборы в России: $28 359 322
Мировая премьера: 19 апреля 2017
Премьера (РФ): 4 мая 2017, «WDSSPR»
Релиз на DVD: 5 сентября 2017, «Уолт Дисней Компани СНГ»
Релиз на Blu-Ray: 5 сентября 2017, «Уолт Дисней Компани СНГ»
Описание: Все в сборе: землянин Питер Квилл (Звездный Лорд), молчаливый громила Дракс, зеленокожая наемница Гамора, живое дерево Грут и говорящий енот. Герои не изменяют себе и с завидной регулярностью продолжают попадать в немыслимые ситуации, выпутываясь из них почти без ущерба (а иногда даже с пользой) для окружающих. На этот раз им предстоит раскрыть одну из самых главных тайн во всей Галактике: кто же на самом деле отец Питера Квилла?
Качество исходника: BDRemux (BlueBird)
Качество: BDRip
Тип: HD (720p)
Контейнер: M4V
Видео: H.264, 1280x544, 2.35:1, 3 500 Kbps, 23.976 (24000/1001) fps
Аудио 1: Русский/Дублированный (iTunes), AAC / 2.0 / 160 Kbps / 48.0 KHz
Аудио 2: Английский/Оригинальная дорожка , AAC / 2.0 / 160 Kbps / 48.0 KHz
Аудио 3: Русский/Дублированный (iTunes), AC-3 / 5.1 / 384 Kbps / 48.0 KHz
Аудио 4: Английский/Оригинальная дорожка , AC-3 / 5.1 / 640 Kbps / 48.0 KHz
Субтитры 1: Русские форсированные
Субтитры 2: Английские форсированные
Субтитры 3: Русские полные
Субтитры 4: Английские полные


Код:
Код: Выделить всё
Sort Name: Guardians of the Galaxy Vol. 2
XID: Apple:vendor_id:2017-841263
contentID: 1225848804
Copyright: © 2017 Marvel
Screenwriters: Джеймс Ганн, Дэн Абнетт, Энди Леннинг
Producers: Виктория Алонсо, Луис Д’Эспозито, Кевин Файги
Director: Джеймс Ганн
Cast: Крис Пратт, Зои Салдана, Дэйв Батиста, Вин Дизель, Брэдли Купер, Майкл Рукер, Карен Гиллан, Пом Клементьефф, Элизабет Дебики, Курт Рассел, Андрей Зайцев, Мария Цветкова-Овсянникова, Максим Сергеев, Андрей Пирог, Сергей Куницкий
Studio: Marvel
Rating: 4
Long Description: Все в сборе: землянин Питер Квилл (Звездный Лорд), молчаливый громила Дракс, зеленокожая наемница Гамора, живое дерево Грут и говорящий енот. Герои не изменяют себе и с завидной регулярностью продолжают попадать в немыслимые ситуации, выпутываясь из них почти без ущерба (а иногда даже с пользой) для окружающих. На этот раз им предстоит раскрыть одну из самых главных тайн во всей Галактике: кто же на самом деле отец Питера Квилла?
Description: Все в сборе: землянин Питер Квилл (Звездный Лорд), молчаливый громила Дракс, зеленокожая наемница Гамора, живое дерево Грут и говорящий енот. Герои не изменяют себе и с завидной регулярностью продолжают попадать в немыслимые ситуации, выпутываясь из них почти без ущерба (а иногда даже с пользой) для окружающих. На этот раз им предстоит раскрыть одну из самых главных тайн во всей Галактике: кто же на самом деле отец Питера Квилла?
Release Date: 2017-04-19T08:00:00Z
Genre: Action & Adventure
Artist: James Gunn
Name: Guardians of the Galaxy Vol. 2

Код:
Код: Выделить всё
General
Complete name                            : /Users/imac/HandBrake/Guardians of the Galaxy Vol. 2 (720p HD).m4v
Format                                   : MPEG-4
Codec ID                                 : M4V  (M4V /M4A /mp42/isom)
File size                                : 4.58 GiB
Duration                                 : 2h 15mn
Overall bit rate mode                    : Variable
Overall bit rate                         : 4 831 Kbps
Movie name                               : Guardians of the Galaxy Vol. 2
Performer                                : James Gunn
Director                                 : Джеймс Ганн
Actor                                    : Крис Пратт / Зои Салдана / Дэйв Батиста / Вин Дизель / Брэдли Купер / Майкл Рукер / Карен Гиллан / Пом Клементьефф / Элизабет Дебики / Курт Рассел / Андрей Зайцев / Мария Цветкова-Овсянникова / Максим Сергеев / Андрей Пирог / Сергей Куницкий
Screenplay by                            : Джеймс Ганн / Дэн Абнетт / Энди Леннинг
Producer                                 : Виктория Алонсо / Луис Д’Эспозито / Кевин Файги
Production studio                        : Marvel
Genre                                    : Action & Adventure
ContentType                              : Short Film
Description                              : Все в сборе: землянин Питер Квилл (Звездный Лорд), молчаливый громила Дракс, зеленокожая наемница Гамора, живое дерево Грут и говорящий енот. Герои не изменяют себе и с завидной регулярностью продолжают попадать в немыслимые ситуации, выпутываясь из них почти без ущерба (а иногда даже с пользой) для окружающих. На этот раз им предстоит раскрыть одну из самых главных тайн во всей Галактике: кто же на самом деле отец Питера Квилла?
Recorded date                            : UTC 2017-04-19 08:00:00
Encoded date                             : UTC 2017-08-12 10:09:36
Tagged date                              : UTC 2017-08-12 10:11:19
Copyright                                : © 2017 Marvel
Cover                                    : Yes
Rating                                   : None
Title/Sort                               : Guardians of the Galaxy Vol. 2
LongDescription                          : Все в сборе: землянин Питер Квилл (Звездный Лорд), молчаливый громила Дракс, зеленокожая наемница Гамора, живое дерево Грут и говорящий енот. Герои не изменяют себе и с завидной регулярностью продолжают попадать в немыслимые ситуации, выпутываясь из них почти без ущерба (а иногда даже с пользой) для окружающих. На этот раз им предстоит раскрыть одну из самых главных тайн во всей Галактике: кто же на самом деле отец Питера Квилла?
HDVideo                                  : Yes
AppleStoreCatalogID                      : 1225848804
Vendor                                   : Apple:vendor_id:2017-841263
ContentRating                            : mpaa|PG-13|300|
Video #1
ID                                       : 1
Format                                   : AVC
Format/Info                              : Advanced Video Codec
Format profile                           : [email protected]
Format settings, CABAC                   : No
Format settings, ReFrames                : 3 frames
Codec ID                                 : avc1
Codec ID/Info                            : Advanced Video Coding
Duration                                 : 2h 15mn
Source duration                          : 2h 15mn
Bit rate                                 : 3 500 Kbps
Width                                    : 1 280 pixels
Height                                   : 544 pixels
Display aspect ratio                     : 2.35:1
Frame rate mode                          : Variable
Frame rate                               : 23.976 (24000/1001) fps
Minimum frame rate                       : 23.974 fps
Maximum frame rate                       : 23.981 fps
Color space                              : YUV
Chroma subsampling                       : 4:2:0
Bit depth                                : 8 bits
Scan type                                : Progressive
Bits/(Pixel*Frame)                       : 0.210
Stream size                              : 3.30 GiB (72%)
Source stream size                       : 3.30 GiB (72%)
Title                                    : Main Program
Writing library                          : x264 core 148 r2708 86b7198
Encoding settings                        : cabac=0 / ref=3 / deblock=1:-3:-3 / analyse=0x3:0x113 / me=umh / subme=9 / psy=1 / psy_rd=1.00:0.15 / mixed_ref=1 / me_range=32 / chroma_me=1 / trellis=0 / 8x8dct=1 / cqm=0 / deadzone=21,11 / fast_pskip=0 / chroma_qp_offset=-2 / threads=17 / lookahead_threads=1 / sliced_threads=0 / nr=0 / decimate=0 / interlaced=0 / bluray_compat=0 / constrained_intra=0 / bframes=3 / b_pyramid=0 / b_adapt=2 / b_bias=0 / direct=1 / weightb=0 / open_gop=0 / weightp=0 / keyint=240 / keyint_min=24 / scenecut=40 / intra_refresh=0 / rc_lookahead=40 / rc=2pass / mbtree=1 / bitrate=3500 / ratetol=1.0 / qcomp=0.65 / qpmin=0 / qpmax=69 / qpstep=4 / cplxblur=20.0 / qblur=0.5 / vbv_maxrate=9500 / vbv_bufsize=9500 / nal_hrd=none / filler=0 / ip_ratio=1.40 / aq=1:1.10
Language                                 : English
Encoded date                             : UTC 2017-08-12 10:09:36
Tagged date                              : UTC 2017-08-12 10:09:49
Color range                              : Limited
Color primaries                          : BT.709
Transfer characteristics                 : BT.709
Matrix coefficients                      : BT.709
Menus                                    : 10,11
Video #2
ID                                       : 11
Format                                   : JPEG
Codec ID                                 : jpeg
Duration                                 : 2h 15mn
Bit rate mode                            : Variable
Bit rate                                 : 549 bps
Width                                    : 640 pixels
Height                                   : 272 pixels
Display aspect ratio                     : 2.35:1
Frame rate mode                          : Variable
Frame rate                               : 0.002 fps
Minimum frame rate                       : 0.002 fps
Maximum frame rate                       : 0.004 fps
Color space                              : YUV
Chroma subsampling                       : 4:2:0
Bit depth                                : 8 bits
Compression mode                         : Lossy
Bits/(Pixel*Frame)                       : 1.577
Stream size                              : 670 KiB (0%)
Title                                    : Chapter Images
Language                                 : English
Default                                  : No
Encoded date                             : UTC 2017-08-12 10:09:53
Tagged date                              : UTC 2017-08-12 10:09:54
Menu For                                 : 1
Audio #1
ID                                       : 2
Format                                   : AAC
Format/Info                              : Advanced Audio Codec
Format profile                           : LC
Codec ID                                 : 40
Duration                                 : 2h 15mn
Bit rate mode                            : Variable
Bit rate                                 : 157 Kbps
Maximum bit rate                         : 231 Kbps
Channel(s)                               : 2 channels
Channel positions                        : Front: L R
Sampling rate                            : 48.0 KHz
Frame rate                               : 46.875 fps (1024 SPF)
Compression mode                         : Lossy
Stream size                              : 152 MiB (3%)
Title                                    : Russian Stereo
Language                                 : Russian
Default                                  : Yes
Alternate group                          : 1
Encoded date                             : UTC 2017-08-12 10:09:36
Tagged date                              : UTC 2017-08-12 10:09:49
Fallback From                            : 4
Subtitles                                : 6,8
Audio #2
ID                                       : 3
Format                                   : AAC
Format/Info                              : Advanced Audio Codec
Format profile                           : LC
Codec ID                                 : 40
Duration                                 : 2h 15mn
Bit rate mode                            : Variable
Bit rate                                 : 158 Kbps
Maximum bit rate                         : 252 Kbps
Channel(s)                               : 2 channels
Channel positions                        : Front: L R
Sampling rate                            : 48.0 KHz
Frame rate                               : 46.875 fps (1024 SPF)
Compression mode                         : Lossy
Stream size                              : 153 MiB (3%)
Title                                    : English Stereo
Language                                 : English
Default                                  : No
Alternate group                          : 1
Encoded date                             : UTC 2017-08-12 10:09:36
Tagged date                              : UTC 2017-08-12 10:09:49
Fallback From                            : 5
Subtitles                                : 7,9
Audio #3
ID                                       : 4
Format                                   : AC-3
Format/Info                              : Audio Coding 3
Format settings, Endianness              : Big
Codec ID                                 : ac-3
Duration                                 : 2h 15mn
Bit rate mode                            : Constant
Bit rate                                 : 384 Kbps
Channel(s)                               : 6 channels
Channel positions                        : Front: L C R, Side: L R, LFE
Sampling rate                            : 48.0 KHz
Frame rate                               : 31.250 fps (1536 SPF)
Bit depth                                : 16 bits
Compression mode                         : Lossy
Stream size                              : 373 MiB (8%)
Title                                    : Russian DD 5.1
Language                                 : Russian
Service kind                             : Complete Main
Default                                  : Inherited From: 2
Alternate group                          : 1
Encoded date                             : UTC 2017-08-12 10:09:36
Tagged date                              : UTC 2017-08-12 10:09:49
Fallback To                              : 2
Subtitles                                : 6,8
Audio #4
ID                                       : 5
Format                                   : AC-3
Format/Info                              : Audio Coding 3
Format settings, Endianness              : Big
Codec ID                                 : ac-3
Duration                                 : 2h 15mn
Bit rate mode                            : Constant
Bit rate                                 : 640 Kbps
Channel(s)                               : 6 channels
Channel positions                        : Front: L C R, Side: L R, LFE
Sampling rate                            : 48.0 KHz
Frame rate                               : 31.250 fps (1536 SPF)
Bit depth                                : 16 bits
Compression mode                         : Lossy
Stream size                              : 622 MiB (13%)
Title                                    : English DD 5.1
Language                                 : English
Service kind                             : Complete Main
Default                                  : No
Alternate group                          : 1
Encoded date                             : UTC 2017-08-12 10:09:36
Tagged date                              : UTC 2017-08-12 10:09:49
Fallback To                              : 3
Subtitles                                : 7,9
Text #1
ID                                       : 6
Format                                   : Timed Text
Muxing mode                              : sbtl
Codec ID                                 : tx3g
Duration                                 : 2h 7mn
Bit rate mode                            : Variable
Bit rate                                 : 0 bps
Stream size                              : 394 Bytes (0%)
Title                                    : Russian forced
Language                                 : Russian
Default                                  : Yes
Forced                                   : Yes
Alternate group                          : 2
Encoded date                             : UTC 2017-08-12 10:09:36
Tagged date                              : UTC 2017-08-12 10:09:48
Subtitles For                            : 2,4
Full Alternative                         : 8
Text #2
ID                                       : 7
Format                                   : Timed Text
Muxing mode                              : sbtl
Codec ID                                 : tx3g
Duration                                 : 4mn 50s
Bit rate                                 : 0 bps
Stream size                              : 2.00 Bytes (0%)
Title                                    : English forced
Language                                 : English
Default                                  : No
Forced                                   : Yes
Alternate group                          : 2
Encoded date                             : UTC 2017-08-12 10:09:36
Tagged date                              : UTC 2017-08-12 10:09:36
Subtitles For                            : 3,5
Full Alternative                         : 9
Text #3
ID                                       : 8
Format                                   : Timed Text
Muxing mode                              : sbtl
Codec ID                                 : tx3g
Duration                                 : 2h 15mn
Bit rate mode                            : Variable
Bit rate                                 : 81 bps
Stream size                              : 80.1 KiB (0%)
Title                                    : Russian full
Language                                 : Russian
Default                                  : No
Forced                                   : No
Alternate group                          : 2
Encoded date                             : UTC 2017-08-12 10:09:36
Tagged date                              : UTC 2017-08-12 10:09:49
Subtitles For                            : 2,4
Forced Alternative                       : 6
Text #4
ID                                       : 9
Format                                   : Timed Text
Muxing mode                              : sbtl
Codec ID                                 : tx3g
Duration                                 : 2h 15mn
Bit rate mode                            : Variable
Bit rate                                 : 55 bps
Stream size                              : 54.5 KiB (0%)
Title                                    : English full
Language                                 : English
Default                                  : No
Forced                                   : No
Alternate group                          : 2
Encoded date                             : UTC 2017-08-12 10:09:36
Tagged date                              : UTC 2017-08-12 10:09:49
Subtitles For                            : 3,5
Forced Alternative                       : 7
Menu #1
00:00:00.000                             : King Cobra & Giant Sea Monkey
00:09:56.000                             : Golden Morons
00:15:10.000                             : Space Chase
00:22:14.000                             : Not From Missouri
00:32:33.000                             : Deepest, Darkest Secrets
00:36:52.000                             : Berhert Ambush
00:42:29.000                             : Finding Meaning
00:48:03.000                             : Taserface
00:53:19.000                             : Celestial Catch
00:58:46.000                             : Let\'s Agree To Never Discuss This
01:05:52.000                             : Eclector Escape
01:11:12.000                             : Sibling Rivalry
01:18:43.000                             : Eternity
01:23:55.000                             : Two Of A Kind
01:30:24.000                             : Inflated Ego
01:39:36.000                             : What A Day
01:47:06.000                             : From The Heart
01:54:21.000                             : A Father\'s Sacrifice
01:58:52.000                             : The Colors Of Ogord
02:07:13.000                             : End Credits
Menu #2
ID                                       : 10
Codec ID                                 : text
Duration                                 : 2h 15mn
Language                                 : English
Encoded date                             : UTC 2017-08-12 10:09:49
Tagged date                              : UTC 2017-08-12 10:09:49
Menu For                                 : 1
00:00:00.000                             : King Cobra & Giant Sea Monkey
00:09:56.000                             : Golden Morons
00:15:10.000                             : Space Chase
00:22:14.000                             : Not From Missouri
00:32:33.000                             : Deepest, Darkest Secrets
00:36:52.000                             : Berhert Ambush
00:42:29.000                             : Finding Meaning
00:48:03.000                             : Taserface
00:53:19.000                             : Celestial Catch
00:58:46.000                             : Let\'s Agree To Never Discuss This
01:05:52.000                             : Eclector Escape
01:11:12.000                             : Sibling Rivalry
01:18:43.000                             : Eternity
01:23:55.000                             : Two Of A Kind
01:30:24.000                             : Inflated Ego
01:39:36.000                             : What A Day
01:47:06.000                             : From The Heart
01:54:21.000                             : A Father\'s Sacrifice
01:58:52.000                             : The Colors Of Ogord
02:07:13.000                             : End Credits
Bit rate mode                            : VBR

Код:
Код: Выделить всё
x264 [info]: frame I:2206  Avg QP:14.47  size:108012
x264 [info]: frame P:79249 Avg QP:17.37  size: 30944
x264 [info]: frame B:113857 Avg QP:19.53  size:  7512
x264 [info]: consecutive B-frames:  6.5% 39.4% 23.6% 30.5%
x264 [info]: mb I  I16..4:  6.1% 58.0% 35.9%
x264 [info]: mb P  I16..4:  2.7%  9.6%  3.9%  P16..4: 46.4% 24.1%  9.7%  0.0%  0.0%    skip: 3.7%
x264 [info]: mb B  I16..4:  0.3%  1.3%  0.6%  B16..8: 40.9%  9.1%  1.3%  direct: 4.3%  skip:42.1%  L0:36.7% L1:53.3% BI:10.1%
x264 [info]: 8x8 transform intra:59.1% inter:44.2%
x264 [info]: coded y,uvDC,uvAC intra: 78.5% 88.4% 65.8% inter: 22.7% 27.8% 16.0%
x264 [info]: i16 v,h,dc,p: 19% 12%  6% 63%
x264 [info]: i8 v,h,dc,ddl,ddr,vr,hd,vl,hu:  7%  8%  4% 11% 16% 14% 15% 12% 13%
x264 [info]: i4 v,h,dc,ddl,ddr,vr,hd,vl,hu:  8%  9%  4% 12% 18% 15% 15% 10%  9%
x264 [info]: i8c dc,h,v,p: 47% 19% 18% 17%
x264 [info]: ref P L0: 76.4% 14.4%  9.2%
x264 [info]: ref B L0: 83.2% 16.8%
x264 [info]: kb/s:3482.18




Релиз подготовлен для просмотра на Apple TV, iPad, iPhone, iPod Touch.
Для просмотра данного релиза на компьютере с ОС Windows рекомендуется использовать VLC media player
 
Не забывайте говорить Спасибо. Не уходите с раздачи!   
Торрент: Зарегистрирован [12 авг 2017, 10:42] Скачать торрент
Скачать торрент
[ Размер 46.3 КБ / Просмотров 26 ]
Статус:
Проверен
 
.torrent скачан: 0 раз
Хэш: 742ce5d6b282e9fca728c338e0e7bfd61aa2a08b
Размер: 4.58 ГБ (4 919 117 857 байт)
Стать Автором раздачи
 
 
Раздал: 0 байт
Скачал: 0 байт
Ратио: Inf.
Сообщения: 360048
Зарегистрирован: 17 апр 2014, 10:57

  • Похожие торренты
    Ответы
    Просмотры
    Последнее сообщение

Вернуться в Фильмы HD для Apple TV

cron