Блокбастер (2017) WEB-DLRip-AVC от OlLanDGroup | iTunes

 
 Статистика раздачи 
Размер: 1.2 ГБ   |  Зарегистрирован: 17 авг 2017, 04:36   |   .torrent скачан: 4458 раз
Сидеров: 756  [ 0 байт/сек ]     Личеров: 109  [ 0 байт/сек ]  
  

Блокбастер (2017) WEB-DLRip-AVC от OlLanDGroup | iTunes

Сообщение graf_t » 17 авг 2017, 04:36

Блокбастер




Год выпуска: 2017
Страна: Россия
Производство: Кинокомпания «Hype Film»
Жанр: Комедия, криминал

Режиссёр: Роман Волобуев
В ролях: Светлана Устинова, Анна Чиповская, Евгений Цыганов, Юлия Снигирь, Михаил Ефремов, Александр Молочников, Дмитрий Ендальцев, Светлана Ходченкова, Дарья Носик

Перевод: Не требуется
Субтитры: Нет
Реклама: Отсутствует

Описание: Лиза, доведенная до нервного срыва коллегами на опостылевшей работе и распутным бойфрендом, садится в машину и уезжает из Москвы в неизвестном ей самой направлении. Глухой ночью она становится свидетельницей налета на точку микрокредитования в райцентре Электроугли и оказывается в заложниках у ослепительно красивой, но очень плохо соображающей грабительницы по имени Наташа.



Качество: WEB-DLRip-AVC
Продолжительность: 01:21:25

Формат: MKV
Видео кодек: MPEG-4 AVC
Аудио кодек: AC3
Видео: 1024x430 (16:9), 25.000 fps, x264 ~1718 kbps avg, 0.163 bit/pixel
Аудио: 48 kHz, AC3 Dolby Digital, 3/2 (L,C,R,l,r) + LFE ch, ~384.00 kbps avg | RUS (iTunes)
Дата премьеры (мир): 13 июля 2017
Дата премьеры (РФ): 13 июля 2017, «Вольга»

Релиз от: Rip by:
Общее
Уникальный идентификатор : 189526687520137079268388345506472664065 (0x8E9583247DA5413FB6F7AE31547C1C01)
Полное имя : D:Blokbaster.2017.WEB-DLRip(AVC).OlLanDGroup.mkv
Формат : Matroska
Версия формата : Version 2
Размер файла : 1,20 Гбайт
Продолжительность : 1 ч. 21 м.
Общий поток : 2104 Кбит/сек
Название фильма : Blokbaster.2017 #TorpedoUK#
Дата кодирования : UTC 2017-08-17 00:07:47
Программа кодирования : mkvmerge v7.8.0 ('River Man') 32bit built on Apr 3 2015 12:11:22
Библиотека кодирования : libebml v1.3.1 + libmatroska v1.4.2

Видео
Идентификатор : 1
Формат : AVC
Формат/Информация : Advanced Video Codec
Профиль формата : [email protected]
Параметр CABAC формата : Да
Параметр ReFrames формата : 10 кадров
Идентификатор кодека : V_MPEG4/ISO/AVC
Продолжительность : 1 ч. 21 м.
Битрейт : 1718 Кбит/сек
Ширина : 1024 пикселя
Высота : 430 пикселей
Соотношение сторон : 2,40:1
Режим частоты кадров : Постоянный
Частота кадров : 24,000 кадра/сек
Цветовое пространство : YUV
Субдискретизация насыщенности : 4:2:0
Битовая глубина : 8 бит
Тип развёртки : Прогрессивная
Бит/(Пиксели*Кадры) : 0.163
Размер потока : 977 Мбайт (80%)
Библиотека кодирования : x264 core 146 r2538 121396c
Настройки программы : cabac=1 / ref=10 / deblock=1:-3:-3 / analyse=0x3:0x133 / me=umh / subme=11 / psy=1 / psy_rd=1.00:0.07 / mixed_ref=1 / me_range=48 / chroma_me=1 / trellis=2 / 8x8dct=1 / cqm=0 / deadzone=21,11 / fast_pskip=0 / chroma_qp_offset=-3 / threads=6 / lookahead_threads=1 / sliced_threads=0 / nr=0 / decimate=0 / interlaced=0 / bluray_compat=0 / constrained_intra=0 / bframes=10 / b_pyramid=2 / b_adapt=2 / b_bias=0 / direct=3 / weightb=1 / open_gop=0 / weightp=2 / keyint=240 / keyint_min=24 / scenecut=40 / intra_refresh=0 / rc_lookahead=40 / rc=2pass / mbtree=0 / bitrate=1718 / ratetol=1.0 / qcomp=0.60 / qpmin=0 / qpmax=69 / qpstep=4 / cplxblur=20.0 / qblur=0.5 / vbv_maxrate=50000 / vbv_bufsize=62500 / nal_hrd=none / filler=0 / ip_ratio=1.40 / pb_ratio=1.30 / aq=1:1.00
Язык : English
Default : Да
Forced : Нет

Аудио
Идентификатор : 2
Формат : AC-3
Формат/Информация : Audio Coding 3
Расширение режима : CM (complete main)
Параметр Endianness формата : Big
Идентификатор кодека : A_AC3
Продолжительность : 1 ч. 21 м.
Вид битрейта : Постоянный
Битрейт : 384 Кбит/сек
Каналы : 6 каналов
Расположение каналов : Front: L C R, Side: L R, LFE
Частота : 48,0 КГц
Частота кадров : 31,250 кадров/сек (1536 spf)
Битовая глубина : 16 бит
Метод сжатия : С потерями
Размер потока : 224 Мбайт (18%)
Заголовок : iTunes
Язык : Russian
Default : Да
Forced : Нет
Statistics Tags Issue : mkvmerge v8.3.0 ('Over the Horizon') 64bit 2017-08-15 11:58:01 / mkvmerge v7.8.0 ('River Man') 32bit built on Apr 3 2015 12:11:22 2017-08-17 00:07:47
FromStats_BitRate : 384000
FromStats_Duration : 01:21:25.504000000
FromStats_FrameCount : 152672
FromStats_StreamSize : 234504192

Меню
00:00:00.000 : en:Глава 1
00:06:08.000 : en:Глава 2
00:11:37.125 : en:Глава 3
00:16:13.291 : en:Глава 4
00:22:34.124 : en:Глава 5
00:28:13.124 : en:Глава 6
00:34:11.999 : en:Глава 7
00:41:00.624 : en:Глава 8
00:46:45.790 : en:Глава 9
00:50:48.790 : en:Глава 10
00:56:24.081 : en:Глава 11
01:00:15.206 : en:Глава 12
01:05:21.372 : en:Глава 13
01:11:53.913 : en:Глава 14




 
Не забывайте говорить Спасибо. Не уходите с раздачи!   
Торрент: Зарегистрирован [17 авг 2017, 04:36] Для скачивания .torrent
необходима регистрация
Или скачать с помощью
MediaGet
Статус:
Проверен
 
.torrent скачан: 4458 раз
Хэш: 39bb148db7980301278c470da3a6ebf3e8ed13f7
Размер: 1.2 ГБ (1 284 913 865 байт)
Стать Автором раздачи
 
 
Раздал: 100 ГБ
Скачал: 0 байт
Ратио: Seed.
Сообщения: 50620
Зарегистрирован: 31 мар 2015, 18:04


  • Похожие торренты
    Ответы
    Просмотры
    Последнее сообщение

Вернуться в Отечественное кино

Ресурс не предоставляет электронные версии произведений, а занимается лишь коллекционированием и каталогизацией ссылок, присылаемых и публикуемых на форуме нашими читателями. Если вы являетесь правообладателем какого-либо представленного материала и не желаете чтобы ссылка на него находилась в нашем каталоге, свяжитесь с нами и мы незамедлительно удалим её. Файлы для обмена на трекере предоставлены пользователями сайта, и администрация не несёт ответственности за их содержание. Просьба не заливать файлы, защищенные авторскими правами, а также файлы нелегального содержания!
cron