Черная вода (2017) WEB-DLRip-AVC от OlLanDGroup | iTunes

 
 Статистика раздачи 
Размер: 2 ГБ   |  Зарегистрирован: 19 авг 2017, 12:19   |   .torrent скачан: 2675 раз
Сидеров: 676  [ 0 байт/сек ]     Личеров: 167  [ 0 байт/сек ]  
  

Черная вода (2017) WEB-DLRip-AVC от OlLanDGroup | iTunes

Сообщение graf_t » 19 авг 2017, 12:20

Черная вода




Год выпуска: 2017
Страна: Россия
Производство: Кинокомпания «Yellow, Black and White», Артлайт
Жанр: Ужасы, драма

Режиссёр: Роман Каримов
В ролях: Ирина Старшенбаум, Евгений Алёхин, Дмитрий Богдан, Сергей Белый, Наталья Шапошникова, Инна Егорова

Перевод: Не требуется
Субтитры: Нет
Реклама: Отсутствует

Описание: Трое молодых людей - Максим, его брат Петр и его новая девушка, Полина, - приезжают в забытую Богом деревню, где поселяются на старом заброшенном корабле, у которого среди местных очень дурная слава. Неожиданно ночью Полина исчезает, и братья бросаются на ее поиски. А когда она так же неожиданно возвращается, вокруг начинают происходить странные вещи. Максим опасается за девушку, а у его брата возникают подозрения, что это... уже не Полина.



Качество: WEB-DLRip-AVC
Продолжительность: 01:52:40

Формат: MKV
Видео кодек: MPEG-4 AVC
Аудио кодек: AC3
Видео: 1024x428 (16:9), 25.000 fps, x264 ~2158 kbps avg, 0.205 bit/pixel
Аудио: 48 kHz, AC3 Dolby Digital, 3/2 (L,C,R,l,r) + LFE ch, ~384.00 kbps avg | RUS (iTunes)
Дата премьеры (мир): 13 июля 2017
Дата премьеры (РФ): 13 июля 2017, «Централ Партнершип»

Релиз от: Rip by:
Общее
Уникальный идентификатор : 246371856250026879736490604013424685091 (0xB9597E58AD93B6D6A2D34469CA6F3023)
Полное имя : D:Chyornaya.voda.2017.WEB-DLRip(AVC).OlLanDGroup.mkv
Формат : Matroska
Версия формата : Version 2
Размер файла : 2,00 Гбайт
Продолжительность : 1 ч. 52 м.
Общий поток : 2537 Кбит/сек
Название фильма : Chyornaya.voda.2017 #TorpedoUK#
Дата кодирования : UTC 2017-08-19 07:40:44
Программа кодирования : mkvmerge v7.8.0 ('River Man') 32bit built on Apr 3 2015 12:11:22
Библиотека кодирования : libebml v1.3.1 + libmatroska v1.4.2

Видео
Идентификатор : 1
Формат : AVC
Формат/Информация : Advanced Video Codec
Профиль формата : [email protected]
Параметр CABAC формата : Да
Параметр ReFrames формата : 10 кадров
Идентификатор кодека : V_MPEG4/ISO/AVC
Продолжительность : 1 ч. 52 м.
Битрейт : 2152 Кбит/сек
Ширина : 1024 пикселя
Высота : 428 пикселей
Соотношение сторон : 2,40:1
Режим частоты кадров : Постоянный
Частота кадров : 24,000 кадра/сек
Цветовое пространство : YUV
Субдискретизация насыщенности : 4:2:0
Битовая глубина : 8 бит
Тип развёртки : Прогрессивная
Бит/(Пиксели*Кадры) : 0.205
Размер потока : 1,65 Гбайт (83%)
Библиотека кодирования : x264 core 146 r2538 121396c
Настройки программы : cabac=1 / ref=10 / deblock=1:-3:-3 / analyse=0x3:0x133 / me=umh / subme=11 / psy=1 / psy_rd=1.00:0.07 / mixed_ref=1 / me_range=48 / chroma_me=1 / trellis=2 / 8x8dct=1 / cqm=0 / deadzone=21,11 / fast_pskip=0 / chroma_qp_offset=-3 / threads=6 / lookahead_threads=1 / sliced_threads=0 / nr=0 / decimate=0 / interlaced=0 / bluray_compat=0 / constrained_intra=0 / bframes=10 / b_pyramid=2 / b_adapt=2 / b_bias=0 / direct=3 / weightb=1 / open_gop=0 / weightp=2 / keyint=240 / keyint_min=24 / scenecut=40 / intra_refresh=0 / rc_lookahead=40 / rc=2pass / mbtree=0 / bitrate=2152 / ratetol=1.0 / qcomp=0.60 / qpmin=0 / qpmax=69 / qpstep=4 / cplxblur=20.0 / qblur=0.5 / vbv_maxrate=50000 / vbv_bufsize=62500 / nal_hrd=none / filler=0 / ip_ratio=1.40 / pb_ratio=1.30 / aq=1:1.00
Язык : English
Default : Да
Forced : Нет

Аудио
Идентификатор : 2
Формат : AC-3
Формат/Информация : Audio Coding 3
Расширение режима : CM (complete main)
Параметр Endianness формата : Big
Идентификатор кодека : A_AC3
Продолжительность : 1 ч. 52 м.
Вид битрейта : Постоянный
Битрейт : 384 Кбит/сек
Каналы : 6 каналов
Расположение каналов : Front: L C R, Side: L R, LFE
Частота : 48,0 КГц
Частота кадров : 31,250 кадров/сек (1536 spf)
Битовая глубина : 16 бит
Метод сжатия : С потерями
Размер потока : 309 Мбайт (15%)
Заголовок : AC3 5.1 @ 384 kbps
Язык : Russian
Default : Да
Forced : Нет

Меню
00:00:00.000 : en:1
00:04:52.083 : en:2
00:11:20.374 : en:3
00:17:47.582 : en:4
00:25:17.123 : en:5
00:33:38.539 : en:6
00:42:19.205 : en:7
00:47:43.246 : en:8
00:54:42.037 : en:9
01:01:05.162 : en:10
01:08:26.912 : en:11
01:15:03.953 : en:12
01:20:51.494 : en:13
01:26:08.619 : en:14
01:32:36.285 : en:15
01:38:22.410 : en:16




 
Не забывайте говорить Спасибо. Не уходите с раздачи!   
Торрент: Зарегистрирован [19 авг 2017, 12:19] Для скачивания .torrent
необходима регистрация
Или скачать с помощью
MediaGet
Статус:
Проверен
 
.torrent скачан: 2675 раз
Хэш: e197aab7fb321e7a3849146390dc925c0342de47
Размер: 2 ГБ (2 143 575 436 байт)
Стать Автором раздачи
 
 
Раздал: 100 ГБ
Скачал: 0 байт
Ратио: Seed.
Сообщения: 42730
Зарегистрирован: 31 мар 2015, 18:04


  • Похожие торренты
    Ответы
    Просмотры
    Последнее сообщение

Вернуться в Отечественное кино

Ресурс не предоставляет электронные версии произведений, а занимается лишь коллекционированием и каталогизацией ссылок, присылаемых и публикуемых на форуме нашими читателями. Если вы являетесь правообладателем какого-либо представленного материала и не желаете чтобы ссылка на него находилась в нашем каталоге, свяжитесь с нами и мы незамедлительно удалим её. Файлы для обмена на трекере предоставлены пользователями сайта, и администрация не несёт ответственности за их содержание. Просьба не заливать файлы, защищенные авторскими правами, а также файлы нелегального содержания!
cron