Ковчег (Ной отплывает) (2017) HDTVRip [H.264]

 
 Статистика раздачи 
Размер: 1.37 ГБ   |  Зарегистрирован: 20 авг 2017, 10:05   |   .torrent скачан: 0 раз
Сидеров: 1  [ 0 байт/сек ]     Личеров: 0  [ 0 байт/сек ]  
  

Ковчег (Ной отплывает) (2017) HDTVRip [H.264]

Сообщение apple2000 » 20 авг 2017, 10:05

Ковчег (Ной отплывает) (2017) HDTVRip [H.264]

Производство: Россия / Пирамида
Жанр: Мелодрама

Режиссер: Александр Котт
Актеры: Александр Балуев, Павел Баршак, Вера Глаголева, Катерина Шпица, Дмитрий Горевой, Михаил Горевой, Ольга Лерман, Нина Станиславская

Описание:
В одном из приморских городков живёт удивительный человек Николай со своей семьёй. Он знаменит на всю округу, и если что-то случается с кем-то из жителей, сразу обращаются к нему. Как к высшему судье и надёжному заступнику. У Николая есть свой бизнес, но известен он не этим. В гостинице, которой владеет Николай, находят приют и убежище все, кто гоним злой волей обстоятельств, интригами завистников и откровенных недругов. И денег за это Николай не берёт, а наоборот - помогает, как может, обустроиться несчастным. За это его и прозвали Ноем, а его гостиницу - ковчегом. Жена Николая Анна - его верный друг, она полностью разделяет его точку зрения на мир и во всём старается ему помочь.


Возраст: 12+ (зрителям, достигшим 12 лет)
Дата российской премьеры: неизвестно

Релиз от: Серый1779

Продолжительность: 01:22:56
Качество видео: HDTVRip
Перевод: Отсутствует (Русский)
Субтитры: отсутствуют

Видео: AVC/H.264, 1024x576, ~2150 Kbps
Аудио: AC3, 2 ch, 192 Kbps
Код: Выделить всё
General
Unique ID                                : 175470397344842108768642780447560533673 (0x84025E87D2B5A80B998333D5F6E986A9)
Complete name                            : /media/win/TORRENT/UPLOAD TORRENTS/Kovcheg.(2017).HDTVRip.AVC.mkv
Format                                   : Matroska
Format version                           : Version 2
File size                                : 1.37 GiB
Duration                                 : 1 h 22 min
Overall bit rate                         : 2 361 kb/s
Encoded date                             : UTC 2017-08-19 20:55:48
Writing application                      : mkvmerge v7.8.0 ('River Man') 32bit built on Apr  3 2015 12:11:22
Writing library                          : libebml v1.3.1 + libmatroska v1.4.2

Video
ID                                       : 1
Format                                   : AVC
Format/Info                              : Advanced Video Codec
Format profile                           :
Format settings, CABAC                   : Yes
Format settings, RefFrames               : 9 frames
Codec ID                                 : V_MPEG4/ISO/AVC
Duration                                 : 1 h 22 min
Bit rate                                 : 2 167 kb/s
Width                                    : 1 024 pixels
Height                                   : 576 pixels
Display aspect ratio                     : 16:9
Frame rate mode                          : Constant
Frame rate                               : 25.000 FPS
Color space                              : YUV
Chroma subsampling                       : 4:2:0
Bit depth                                : 8 bits
Scan type                                : Progressive
Bits/(Pixel*Frame)                       : 0.147
Stream size                              : 1.23 GiB (90%)
Writing library                          : x264 core 146 r2538 121396c
Encoding settings                        : cabac=1 / ref=9 / deblock=1:-2:-1 / analyse=0x3:0x113 / me=umh / subme=9 / psy=1 / psy_rd=1.00:0.15 / mixed_ref=1 / me_range=32 / chroma_me=1 / trellis=2 / 8x8dct=1 / cqm=0 / deadzone=21,11 / fast_pskip=0 / chroma_qp_offset=-3 / threads=6 / lookahead_threads=1 / sliced_threads=0 / nr=0 / decimate=1 / interlaced=0 / bluray_compat=0 / constrained_intra=0 / bframes=9 / b_pyramid=2 / b_adapt=2 / b_bias=0 / direct=1 / weightb=1 / open_gop=0 / weightp=2 / keyint=250 / keyint_min=25 / scenecut=40 / intra_refresh=0 / rc_lookahead=50 / rc=2pass / mbtree=0 / bitrate=2167 / ratetol=1.0 / qcomp=0.60 / qpmin=0 / qpmax=69 / qpstep=4 / cplxblur=20.0 / qblur=0.5 / vbv_maxrate=14000 / vbv_bufsize=14000 / nal_hrd=none / filler=0 / ip_ratio=1.40 / pb_ratio=1.30 / aq=2:1.00
Default                                  : Yes
Forced                                   : No
Color range                              : Limited
Color primaries                          : BT.709
Transfer characteristics                 : BT.709
Matrix coefficients                      : BT.709

Audio
ID                                       : 2
Format                                   : AC-3
Format/Info                              : Audio Coding 3
Format settings, Endianness              : Big
Codec ID                                 : A_AC3
Duration                                 : 1 h 22 min
Bit rate mode                            : Constant
Bit rate                                 : 192 kb/s
Channel(s)                               : 2 channels
Channel positions                        : Front: L R
Sampling rate                            : 48.0 kHz
Frame rate                               : 31.250 FPS (1536 SPF)
Bit depth                                : 16 bits
Compression mode                         : Lossy
Stream size                              : 114 MiB (8%)
Service kind                             : Complete Main
Default                                  : Yes
Forced                                   : No
Последняя роль Веры Глаголевой.

Скриншоты:




Время раздачи: с 09:00 до 00:00 до пяти скачавших (до появления первых 3-5 скачавших)
 
Не забывайте говорить Спасибо. Не уходите с раздачи!   
Торрент: Зарегистрирован [20 авг 2017, 10:05] Для скачивания .torrent
необходима регистрация
Или скачать с помощью
MediaGet
Статус:
Проверен
 
.torrent скачан: 0 раз
Хэш: 848c2dca38c2eeb1f9d6cc5a5896660931bf84f6
Размер: 1.37 ГБ (1 468 531 968 байт)
Стать Автором раздачи
 
 
Раздал: 0 байт
Скачал: 0 байт
Ратио: Inf.
Сообщения: 31162
Зарегистрирован: 05 окт 2014, 15:23


  • Похожие торренты
    Ответы
    Просмотры
    Последнее сообщение

Вернуться в Отечественное кино

Ресурс не предоставляет электронные версии произведений, а занимается лишь коллекционированием и каталогизацией ссылок, присылаемых и публикуемых на форуме нашими читателями. Если вы являетесь правообладателем какого-либо представленного материала и не желаете чтобы ссылка на него находилась в нашем каталоге, свяжитесь с нами и мы незамедлительно удалим её. Файлы для обмена на трекере предоставлены пользователями сайта, и администрация не несёт ответственности за их содержание. Просьба не заливать файлы, защищенные авторскими правами, а также файлы нелегального содержания!