Птица (Ксения Баскакова) [2017, мелодрама, музыка, HDTVRip]

 
 Статистика раздачи 
Размер: 1.46 ГБ   |  Зарегистрирован: 27 авг 2017, 16:29   |   .torrent скачан: 0 раз
Сидеров: 544  [ 0 байт/сек ]     Личеров: 176  [ 0 байт/сек ]  
  

Птица (Ксения Баскакова) [2017, мелодрама, музыка, HDTVRip]

Сообщение Nakazhu » 27 авг 2017, 16:29

Птица
Выпущено: Ленфильм
Жанр: мелодрама, музыка
Год выпуска: 2017
Продолжительность: 01:25:37
Субтитры: нет
Режиссер:
Ксения Баскакова
В ролях:
Иван Охлобыстин, Евдокия Малевская, Анастасия Мельникова, Гарик Сукачев, Инна Горбикова, Кирилл Рубцов, Кирилл Захаров, Денис Старков, Владимир Лекус, Олеся Соколова
Описание:
«Олег Птицын умер», «Олег Птицын скрывается в тюрьме» - пестрят заголовки журналов и газет.
Но нет, скандально известный рок-музыкант проходит лечение в клинике, там же к нему навязывается в друзья Катя, девочка-подросток, которая третирует всю больницу, с ней не может совладать даже собственная мать. Между ними начинается дружба».
Качество видео: HDTVRip
Формат видео: AVI
Видео: 720x320 (2.25:1), 25 fps, XviD build 73 ~2231 kbps avg, 0.39 bit/pixel
Аудио: 48 kHz, AC3 Dolby Digital, 2/0 (L,R) ch, ~192 kbps
Скачать сэмпл
Код:
Код: Выделить всё
Format                      : AVI
Format/Info                 : Audio Video Interleave
File size                   : 1.46 GiB
Duration                    : 1 h 25 min
Overall bit rate            : 2 433 kb/s
Writing application         : VirtualDubMod 1.5.10.3 | www.virtualdub-fr.org || (build 2550/release)
Writing library             : VirtualDubMod build 2550/release
Video
ID                          : 0
Format                      : MPEG-4 Visual
Format profile              : Advanced [email protected]
Format settings, BVOP       : 1
Format settings, QPel       : No
Format settings, GMC        : No warppoints
Format settings, Matrix     : Custom
Codec ID                    : XVID
Codec ID/Hint               : XviD
Duration                    : 1 h 25 min
Bit rate                    : 2 231 kb/s
Width                       : 720 pixels
Height                      : 320 pixels
Display aspect ratio        : 2.25:1
Frame rate                  : 25.000 FPS
Color space                 : YUV
Chroma subsampling          : 4:2:0
Bit depth                   : 8 bits
Scan type                   : Progressive
Compression mode            : Lossy
Bits/(Pixel*Frame)          : 0.387
Stream size                 : 1.33 GiB (92%)
Writing library             : XviD 73
Audio
ID                          : 1
Format                      : AC-3
Format/Info                 : Audio Coding 3
Format settings, Endianness : Big
Codec ID                    : 2000
Duration                    : 1 h 25 min
Bit rate mode               : Constant
Bit rate                    : 192 kb/s
Channel(s)                  : 2 channels
Channel positions           : Front: L R
Sampling rate               : 48.0 kHz
Frame rate                  : 31.250 FPS (1536 spf)
Bit depth                   : 16 bits
Compression mode            : Lossy
Stream size                 : 118 MiB (8%)
Alignment                   : Split accross interleaves
Interleave, duration        : 40  ms (1.00 video frame)
Interleave, preload duratio : 500  ms
Service kind                : Complete Main

 
Не забывайте говорить Спасибо. Не уходите с раздачи!   
Торрент: Зарегистрирован [27 авг 2017, 16:29] Для скачивания .torrent
необходима регистрация
Или скачать с помощью
MediaGet
Статус:
Проверен
 
.torrent скачан: 0 раз
Хэш: 99f59c2b14c7ec2c1ee50cdbb9a39594d475837e
Размер: 1.46 ГБ (1 562 546 176 байт)
Стать Автором раздачи
 
 
Раздал: 0 байт
Скачал: 0 байт
Ратио: Inf.
Сообщения: 399188
Зарегистрирован: 17 апр 2014, 13:57


  • Похожие торренты
    Ответы
    Просмотры
    Последнее сообщение

Вернуться в Отечественное кино

Ресурс не предоставляет электронные версии произведений, а занимается лишь коллекционированием и каталогизацией ссылок, присылаемых и публикуемых на форуме нашими читателями. Если вы являетесь правообладателем какого-либо представленного материала и не желаете чтобы ссылка на него находилась в нашем каталоге, свяжитесь с нами и мы незамедлительно удалим её. Файлы для обмена на трекере предоставлены пользователями сайта, и администрация не несёт ответственности за их содержание. Просьба не заливать файлы, защищенные авторскими правами, а также файлы нелегального содержания!
cron