Графомафия (Владимир Зайкин, Эдуард Радзюкевич) [2017, комедия, WEB-DLRip]

 
 Статистика раздачи 
Размер: 743.43 МБ   |  Зарегистрирован: 09 сен 2017, 18:17   |   .torrent скачан: 0 раз
Сидеров: 180  [ 0 байт/сек ]     Личеров: 58  [ 0 байт/сек ]  
  

Графомафия (Владимир Зайкин, Эдуард Радзюкевич) [2017, комедия, WEB-DLRip]

Сообщение Nakazhu » 09 сен 2017, 18:17

Графомафия
Выпущено: Студия Крылья
Жанр: комедия
Год выпуска: 2017
Продолжительность: 01:33:35
Субтитры: нет
Режиссер: Владимир Зайкин, Эдуард Радзюкевич
В ролях: Гоша Куценко, Даниил Спиваковский, Станислав Дужников, Эдуард Радзюкевич, Юрий Стоянов, Дарья Екамасова, Маргарита Шубина, Аристарх Венес, Дарья Мороз, Владимир Епифанцев
Описание: Успешный издатель Надежда Павловна нанимает мечтающих о славе графоманов, чтобы убить талантливого писателя и присвоить его роман, который принесет славу ее обожаемому сыну. Но Шурок равнодушен и к славе, и к литературе. Он любит дорогие машины и красивых девушек. Банда графоманов с энтузиазмом берется за дело. Ведь цена успеха — издание их творений. Но, оказывается, применять кровавые методы в жизни намного сложнее, чем в написании триллера. У каждого свое представление об успехе и счастье. Для одних это встреча с возлюбленным, для других — популярность в соцсетях, а для кого-то предел мечтаний увидеть свое имя на книжной обложке.
Качество видео:
Формат видео: AVI
Видео: 688x288 (2.39:1), 25 fps, XviD build 73 ~972 kbps avg, 0.20 bit/pixel
Аудио: 48 kHz, MPEG Layer 3, 2 ch, ~128.00 kbps avg
Скачать сэмпл
Код: Выделить всё
Код:
Код: Выделить всё
Format                      : AVI
Format/Info                 : Audio Video Interleave
File size                   : 743 MiB
Duration                    : 1 h 33 min
Overall bit rate            : 1 111 kb/s
Writing application         : VirtualDubMod 1.5.10.3 | www.virtualdub-fr.org || (build 2550/release)
Writing library             : VirtualDubMod build 2550/release
Video
ID                          : 0
Format                      : MPEG-4 Visual
Format profile              : Advanced [email protected]
Format settings, BVOP       : 1
Format settings, QPel       : No
Format settings, GMC        : No warppoints
Format settings, Matrix     : Default (H.263)
Codec ID                    : XVID
Codec ID/Hint               : XviD
Duration                    : 1 h 33 min
Bit rate                    : 973 kb/s
Width                       : 688 pixels
Height                      : 288 pixels
Display aspect ratio        : 2.40:1
Frame rate                  : 25.000 FPS
Color space                 : YUV
Chroma subsampling          : 4:2:0
Bit depth                   : 8 bits
Scan type                   : Progressive
Compression mode            : Lossy
Bits/(Pixel*Frame)          : 0.196
Stream size                 : 651 MiB (88%)
Writing library             : XviD 73
Audio
ID                          : 1
Format                      : MPEG Audio
Format version              : Version 1
Format profile              : Layer 3
Codec ID                    : 55
Codec ID/Hint               : MP3
Duration                    : 1 h 33 min
Bit rate mode               : Constant
Bit rate                    : 128 kb/s
Channel(s)                  : 2 channels
Sampling rate               : 48.0 kHz
Compression mode            : Lossy
Stream size                 : 85.7 MiB (12%)
Alignment                   : Aligned on interleaves
Interleave, duration        : 40  ms (1.00 video frame)
Interleave, preload duratio : 504  ms
Writing library             : LAME3.99r
Encoding settings           : -m s -V 4 -q 2 -lowpass 17 -b 128

 
Не забывайте говорить Спасибо. Не уходите с раздачи!   
Торрент: Зарегистрирован [09 сен 2017, 18:17] Для скачивания .torrent
необходима регистрация
Или скачать с помощью
MediaGet
Статус:
Проверен
 
.torrent скачан: 0 раз
Хэш: afe310669f543e1af3746643b41f9fb8540b3f47
Размер: 743.43 МБ (779 546 624 байт)
Стать Автором раздачи
 
 
Раздал: 0 байт
Скачал: 0 байт
Ратио: Inf.
Сообщения: 439470
Зарегистрирован: 17 апр 2014, 13:57


  • Похожие торренты
    Ответы
    Просмотры
    Последнее сообщение

Вернуться в Отечественное кино

Ресурс не предоставляет электронные версии произведений, а занимается лишь коллекционированием и каталогизацией ссылок, присылаемых и публикуемых на форуме нашими читателями. Если вы являетесь правообладателем какого-либо представленного материала и не желаете чтобы ссылка на него находилась в нашем каталоге, свяжитесь с нами и мы незамедлительно удалим её. Файлы для обмена на трекере предоставлены пользователями сайта, и администрация не несёт ответственности за их содержание. Просьба не заливать файлы, защищенные авторскими правами, а также файлы нелегального содержания!
cron