Теснота (Кантемир Балагов) [2017, драма, WEB-DLRip-AVC]

 
 Статистика раздачи 
Размер: 1.46 ГБ   |  Зарегистрирован: 19 сен 2017, 08:34   |   .torrent скачан: 0 раз
Сидеров: 11  [ 0 байт/сек ]     Личеров: 4  [ 0 байт/сек ]  
  

Теснота (Кантемир Балагов) [2017, драма, WEB-DLRip-AVC]

Сообщение Nakazhu » 19 сен 2017, 08:34

#7Теснота
Год выпуска: 2017
Жанр: драма
Продолжительность: 01:57:50
Субтитры: русские (на кабардинский язык)
Режиссёр: Кантемир Балагов
В ролях: Дарья Жовнер, Ольга Драгунова, Артем Цыпин, Вениамин Кац, Назир Жуков, Михаил Амбург, Егор Шевяков и др.
Описание: 1998 год, Нальчик. Илана — девочка-подросток из хорошей семьи, которая все делает наоборот. Перечит матери. Спорит с отцом. Чинит машины в автомастерской, не вылезая из спецодежды. Встречается с парнем, который не нравится ее родителям. Пацанка и красавица, она идет своим путем и жаждет свободы, но когда в доме происходит страшная трагедия, именно Илана оказывается единственной, кто способен спасти семью. Однако какой ценой?
КиноПоиск | IMDb | Sample
Качество: WEB-DLRip-AVC (Источник: Tesnota.2017.O.1080p.WEB-DL.Rustorrents)
Формат: MKV
Видео: x264, 758x560 (4:3), 25.000 fps, ~1579 kbps avg, 0.149 bit/pixel
Аудио: Русский 48.0 KHz, АC3, 2 (Front: L R) ch, ~192.00 kbps avg |Оригинал|
Формат субтитров: hardsub (неотключаемые)
Рип - whip93.
Source vs. Encode

---[Information] [18.09.2017 17:04:41] raw [info]: 758x560p 1:1 @ 25/1 fps (cfr)
---[Information] [18.09.2017 17:04:41] x264 [info]: using SAR=1/1
---[Information] [18.09.2017 17:04:41] x264 [info]: using cpu capabilities: MMX2 SSE2Fast SSSE3 SSE4.2 AVX
---[Information] [18.09.2017 17:04:41] x264 [info]: profile High, level 4.1
---[Information] [18.09.2017 22:53:47] x264 [info]: frame I:861 Avg QP:14.70 size: 55719
---[Information] [18.09.2017 22:53:47] x264 [info]: frame P:44997 Avg QP:17.74 size: 16467
---[Information] [18.09.2017 22:53:47] x264 [info]: frame B:130895 Avg QP:19.79 size: 4632
---[Information] [18.09.2017 22:53:47] x264 [info]: consecutive B-frames: 2.0% 3.8% 6.7% 62.3% 8.4% 11.3% 1.9% 2.5% 0.4% 0.4% 0.1% 0.2% 0.0% 0.1%
---[Information] [18.09.2017 22:53:47] x264 [info]: mb I I16..4: 10.1% 69.5% 20.4%
---[Information] [18.09.2017 22:53:47] x264 [info]: mb P I16..4: 2.0% 7.4% 0.7% P16..4: 34.8% 37.3% 11.7% 1.7% 0.2% skip: 4.2%
---[Information] [18.09.2017 22:53:47] x264 [info]: mb B I16..4: 0.2% 0.9% 0.1% B16..8: 34.6% 18.0% 2.2% direct: 5.5% skip:38.6% L0:40.8% L1:46.6% BI:12.6%
---[Information] [18.09.2017 22:53:47] x264 [info]: 8x8 transform intra:73.0% inter:63.6%
---[Information] [18.09.2017 22:53:47] x264 [info]: coded y,uvDC,uvAC intra: 71.1% 93.5% 83.0% inter: 12.6% 25.2% 12.2%
---[Information] [18.09.2017 22:53:47] x264 [info]: i16 v,h,dc,p: 21% 16% 4% 58%
---[Information] [18.09.2017 22:53:47] x264 [info]: i8 v,h,dc,ddl,ddr,vr,hd,vl,hu: 9% 9% 5% 9% 13% 14% 13% 13% 14%
---[Information] [18.09.2017 22:53:47] x264 [info]: i4 v,h,dc,ddl,ddr,vr,hd,vl,hu: 11% 11% 5% 9% 15% 14% 13% 10% 12%
---[Information] [18.09.2017 22:53:47] x264 [info]: i8c dc,h,v,p: 44% 20% 19% 18%
---[Information] [18.09.2017 22:53:47] x264 [info]: Weighted P-Frames: Y:3.6% UV:1.9%
---[Information] [18.09.2017 22:53:47] x264 [info]: ref P L0: 53.0% 7.4% 15.7% 5.8% 4.3% 3.5% 2.9% 1.7% 1.5% 1.4% 1.3% 1.3% 0.1% 0.0%
---[Information] [18.09.2017 22:53:47] x264 [info]: ref B L0: 80.2% 9.0% 4.1% 1.8% 1.3% 1.0% 0.9% 0.5% 0.5% 0.4% 0.2%
---[Information] [18.09.2017 22:53:47] x264 [info]: ref B L1: 95.5% 4.5%
---[Information] [18.09.2017 22:53:47] x264 [info]: kb/s:1578.77
---[Information] [18.09.2017 22:53:47] encoded 176753 frames, 8.44 fps, 1578.77 kb/s
General
Unique ID : 219363297074359474574746937803947837082 (0xA507D591A334742D8A6EB0A34717069A)
Complete name : F:\Теснота.2017.WEB-DLRip.DD2.0.x264.-whip93.mkv
Format : Matroska
Format version : Version 4 / Version 2
File size : 1.46 GiB
Duration : 1h 57mn
Overall bit rate : 1 772 Kbps
Movie name : Теснота (2017) - Release by whip93
Encoded date : UTC 2017-09-19 03:12:13
Writing application : mkvmerge v6.1.0 ('Old Devil') built on Mar 4 2013 09:10:42
Writing library : libebml v1.3.0 + libmatroska v1.4.0
Video
ID : 1
Format : AVC
Format/Info : Advanced Video Codec
Format profile : [email protected]
Format settings, CABAC : Yes
Format settings, ReFrames : 12 frames
Codec ID : V_MPEG4/ISO/AVC
Duration : 1h 57mn
Bit rate : 1 579 Kbps
Width : 758 pixels
Height : 560 pixels
Display aspect ratio : 4:3
Frame rate mode : Constant
Frame rate : 25.000 fps
Color space : YUV
Chroma subsampling : 4:2:0
Bit depth : 8 bits
Scan type : Progressive
Bits/(Pixel*Frame) : 0.149
Stream size : 1.27 GiB (87%)
Title : Encoded by whip93
Writing library : x264 core 152 r2851 ba24899
Encoding settings : cabac=1 / ref=12 / deblock=1:-3:-3 / analyse=0x3:0x133 / me=umh / subme=11 / psy=1 / psy_rd=1.00:0.08 / mixed_ref=1 / me_range=64 / chroma_me=1 / trellis=2 / 8x8dct=1 / cqm=0 / deadzone=21,11 / fast_pskip=0 / chroma_qp_offset=-6 / threads=12 / lookahead_threads=3 / sliced_threads=0 / nr=0 / decimate=1 / interlaced=0 / bluray_compat=0 / constrained_intra=0 / bframes=13 / b_pyramid=2 / b_adapt=2 / b_bias=0 / direct=1 / weightb=1 / open_gop=0 / weightp=2 / keyint=250 / keyint_min=25 / scenecut=40 / intra_refresh=0 / rc_lookahead=60 / rc=2pass / mbtree=1 / bitrate=1579 / ratetol=1.0 / qcomp=0.72 / qpmin=0 / qpmax=69 / qpstep=4 / cplxblur=20.0 / qblur=0.5 / vbv_maxrate=50000 / vbv_bufsize=62500 / nal_hrd=none / filler=0 / ip_ratio=1.40 / aq=1:0.80
Language : Russian
Default : Yes
Forced : No
Color range : Limited
Color primaries : BT.709
Transfer characteristics : BT.709
Matrix coefficients : BT.709
Audio
ID : 2
Format : AC-3
Format/Info : Audio Coding 3
Mode extension : CM (complete main)
Format settings, Endianness : Big
Codec ID : A_AC3
Duration : 1h 57mn
Bit rate mode : Constant
Bit rate : 192 Kbps
Channel(s) : 2 channels
Channel positions : Front: L R
Sampling rate : 48.0 KHz
Compression mode : Lossy
Stream size : 162 MiB (11%)
Language : Russian
Default : Yes
Forced : No
Menu
00:00:00.000 : ru:Глава 1
00:06:30.200 : ru:Глава 2
00:11:41.760 : ru:Глава 3
00:18:52.159 : ru:Глава 4
00:24:57.879 : ru:Глава 5
00:31:05.879 : ru:Глава 6
00:38:13.838 : ru:Глава 7
00:46:20.397 : ru:Глава 8
00:56:37.797 : ru:Глава 9
01:04:11.717 : ru:Глава 10
01:12:02.797 : ru:Глава 11
01:18:13.236 : ru:Глава 12
01:23:56.595 : ru:Глава 13
01:29:24.914 : ru:Глава 14
01:37:29.714 : ru:Глава 15
01:44:16.474 : ru:Глава 16

 
Не забывайте говорить Спасибо. Не уходите с раздачи!   
Торрент: Зарегистрирован [19 сен 2017, 08:34] Для скачивания .torrent
необходима регистрация
Или скачать с помощью
MediaGet
Статус:
Проверен
 
.torrent скачан: 0 раз
Хэш: ceecf03446f370f6a663aa7a7c287eba185fcd46
Размер: 1.46 ГБ (1 566 452 036 байт)
Стать Автором раздачи
 
 
Раздал: 0 байт
Скачал: 0 байт
Ратио: Inf.
Сообщения: 399177
Зарегистрирован: 17 апр 2014, 13:57


  • Похожие торренты
    Ответы
    Просмотры
    Последнее сообщение

Вернуться в Отечественное кино

Ресурс не предоставляет электронные версии произведений, а занимается лишь коллекционированием и каталогизацией ссылок, присылаемых и публикуемых на форуме нашими читателями. Если вы являетесь правообладателем какого-либо представленного материала и не желаете чтобы ссылка на него находилась в нашем каталоге, свяжитесь с нами и мы незамедлительно удалим её. Файлы для обмена на трекере предоставлены пользователями сайта, и администрация не несёт ответственности за их содержание. Просьба не заливать файлы, защищенные авторскими правами, а также файлы нелегального содержания!
cron