Гоголь. Начало (Егор Баранов) [2017, приключения, триллер, детектив, WEB-DLRip-AVC]

 
 Статистика раздачи 
Размер: 746.05 МБ   |  Зарегистрирован: 02 окт 2017, 00:21   |   .torrent скачан: 0 раз
Сидеров: 68  [ 0 байт/сек ]     Личеров: 22  [ 0 байт/сек ]  
  

Гоголь. Начало (Егор Баранов) [2017, приключения, триллер, детектив, WEB-DLRip-AVC]

Сообщение Nakazhu » 02 окт 2017, 00:21

Гоголь. Начало

«Самая тёмная ночь перед рассветом»

Страна: Россия
Жанр: приключения, триллер, детектив
Год выпуска: 2017
Продолжительность: 01:46:42
Перевод: Не требуется
Субтитры: нет
Оригинальная аудиодорожка: русский
Режиссер: Егор Баранов
В ролях: Александр Петров, Олег Меньшиков, Евгений Стычкин, Таисия Вилкова, Артем Ткаченко, Юлия Франц, Евгений Сытый, Ян Цапник, Сергей Бадюк, Марта Тимофеева, Светлана Киреева, Артем Сучков
Описание:
Казаки, ведьмы, русалки, утопленницы и другие обитатели Диканьки встречаются лицом к лицу со своим создателем Николаем Гоголем, молодым писарем из Петербурга, который страдает загадочными припадками и может общаться с персонажами из потустороннего мира. Вместе со своим начальником, блестящим столичным следователем Яковым Гуро, начинающий писатель приезжает на Полтавщину расследовать таинственные убийства девушек. Здесь же он встречает свою любовь, которой суждено сыграть роковую роль в его судьбе. Но хватит ли юному литератору духу противостоять невообразимому? Ведь по слухам, которые активно разносят напуганные местные жители, за преступлениями стоит не кто иной, как сам Дьявол в обличии черного всадника.
Полная версия [18+] - без цензуры!

Автор рипа: stalkerok
Сэмпл
Качество видео: WEB-DLRip-AVC [Gogol.Nachalo.2017.1080p.WEB-DL.Rus.EliteHD]
Формат видео: MKV
Видео: 912 Кбит/сек, 910*382 (2,40:1), в 24,000 кадра/сек, AVC
Аудио: русский, 64,0 Кбит/сек, 48,0 КГц / 24,0 КГц, 2 канала, AAC (HE-AAC / LC) [iTunes]
Навигация по главам: есть

x264 [info]: frame I:1297 Avg QP:15.32 size: 33418
x264 [info]: frame P:37282 Avg QP:18.88 size: 10144
x264 [info]: frame B:115069 Avg QP:21.14 size: 2678
Общее
Уникальный идентификатор : 212912341332366893913199394523109581026 (0xA02D6CE50F0E8F4EAAF766D505DEE0E2)
Полное имя : M:\!Rips2017\Gogol'. Nachalo\Gogol.Nachalo.2017.WEB-DLRip-AVC.RUS..stalkerok.new-team.mkv
Формат : Matroska
Версия формата : Version 4 / Version 2
Размер файла : 746 Мбайт
Продолжительность : 1 ч. 46 м.
Общий поток : 978 Кбит/сек
Название фильма : Гоголь. Начало (2017) (Rip by stalkerok)
Дата кодирования : UTC 2017-10-01 12:35:48
Программа кодирования : mkvmerge v16.0.0 ('Protest') 64-bit
Библиотека кодирования : libebml v1.3.5 + libmatroska v1.4.8
Видео
Идентификатор : 1
Формат : AVC
Формат/Информация : Advanced Video Codec
Профиль формата : [email protected]
Параметр CABAC формата : Да
Параметр ReFrames формата : 16 кадров
Идентификатор кодека : V_MPEG4/ISO/AVC
Продолжительность : 1 ч. 46 м.
Битрейт : 912 Кбит/сек
Ширина : 910 пикселей
Высота : 382 пикселя
Соотношение сторон : 2,40:1
Режим частоты кадров : Постоянный
Частота кадров : 24,000 кадра/сек
Цветовое пространство : YUV
Субдискретизация насыщенности : 4:2:0
Битовая глубина : 8 бит
Тип развёртки : Прогрессивная
Бит/(Пиксели*Кадры) : 0.109
Размер потока : 696 Мбайт (93%)
Заголовок : Гоголь. Начало (2017) (Rip by stalkerok)
Библиотека кодирования : x264 core 150 r2833kMod df79067
Настройки программы : cabac=1 / ref=16 / deblock=1:-3:-2 / analyse=0x3:0x133 / me=umh / subme=11 / psy=1 / fade_compensate=0.00 / psy_rd=1.00:0.00 / mixed_ref=1 / me_range=32 / chroma_me=1 / trellis=2 / 8x8dct=1 / cqm=0 / deadzone=21,11 / fast_pskip=0 / chroma_qp_offset=-2 / threads=12 / lookahead_threads=2 / sliced_threads=0 / nr=0 / decimate=0 / interlaced=0 / bluray_compat=0 / constrained_intra=0 / bframes=16 / b_pyramid=2 / b_adapt=2 / b_bias=0 / direct=3 / weightb=1 / open_gop=0 / weightp=2 / keyint=240 / keyint_min=23 / scenecut=40 / intra_refresh=0 / rc_lookahead=60 / rc=2pass / mbtree=0 / bitrate=912 / ratetol=1.0 / qcomp=0.65 / qpmin=0 / qpmax=69 / qpstep=4 / cplxblur=20.0 / qblur=0.5 / vbv_maxrate=50000 / vbv_bufsize=62500 / nal_hrd=none / filler=0 / ip_ratio=1.40 / pb_ratio=1.30 / aq=3:0.85 / zones=148550,153647,q=33
Default : Да
Forced : Нет
Аудио
Идентификатор : 2
Формат : AAC
Формат/Информация : Advanced Audio Codec
Профиль формата : HE-AACv2 / HE-AAC / LC
Идентификатор кодека : A_AAC
Продолжительность : 1 ч. 46 м.
Битрейт : 64,0 Кбит/сек
Каналы : 2 канала / 14 каналов / 14 каналов
Расположение каналов : Front: L R / Front: L C R, Back: 8, LFE= 3 / Front: L C R, Back: 8, LFE= 3
Частота : 48,0 КГц / 48,0 КГц / 24,0 КГц
Частота кадров : 23,438 кадра/сек (1024 spf)
Метод сжатия : С потерями
Задержка видео : 31 мс.
Размер потока : 48,8 Мбайт (7%)
Язык : Russian
Default : Да
Forced : Нет
Меню
00:00:00.000 : en:1
00:05:51.958 : en:2
00:10:17.083 : en:3
00:15:44.041 : en:4
00:22:17.791 : en:5
00:27:06.791 : en:6
00:33:22.416 : en:7
00:40:16.791 : en:8
00:46:53.207 : en:9
00:54:39.290 : en:10
01:00:58.581 : en:11
01:07:46.164 : en:12
01:13:40.289 : en:13
01:20:47.830 : en:14
01:26:59.955 : en:15
01:32:11.121 : en:16
01:38:34.496 : en:17
 
Не забывайте говорить Спасибо. Не уходите с раздачи!   
Торрент: Зарегистрирован [02 окт 2017, 00:21] Для скачивания .torrent
необходима регистрация
Или скачать с помощью
MediaGet
Статус:
Проверен
 
.torrent скачан: 0 раз
Хэш: 53a147e1062631925a48539212692b919a3b96d4
Размер: 746.05 МБ (782 294 775 байт)
Стать Автором раздачи
 
 
Раздал: 0 байт
Скачал: 0 байт
Ратио: Inf.
Сообщения: 399882
Зарегистрирован: 17 апр 2014, 13:57


  • Похожие торренты
    Ответы
    Просмотры
    Последнее сообщение

Вернуться в Отечественное кино

Ресурс не предоставляет электронные версии произведений, а занимается лишь коллекционированием и каталогизацией ссылок, присылаемых и публикуемых на форуме нашими читателями. Если вы являетесь правообладателем какого-либо представленного материала и не желаете чтобы ссылка на него находилась в нашем каталоге, свяжитесь с нами и мы незамедлительно удалим её. Файлы для обмена на трекере предоставлены пользователями сайта, и администрация не несёт ответственности за их содержание. Просьба не заливать файлы, защищенные авторскими правами, а также файлы нелегального содержания!
cron