Гоголь. Начало (2017) WEB-DL [H.264/1080p-LQ]

 
 Статистика раздачи 
Размер: 3.67 ГБ   |  Зарегистрирован: 02 окт 2017, 06:42   |   .torrent скачан: 0 раз
Сидеров: 1  [ 0 байт/сек ]     Личеров: 0  [ 0 байт/сек ]  
  

Гоголь. Начало (2017) WEB-DL [H.264/1080p-LQ]

Сообщение aLaVodka » 02 окт 2017, 06:42

Гоголь. Начало (2017) WEB-DL [H.264/1080p-LQ]

Производство: Россия, Продюсерский центр «Среда»
Жанр: Приключения, Триллер, Детектив

Режиссер: Егор Баранов
Продюсер: Александр Цекало, Артур Джанибекян, Валерий Федорович
Актеры: Александр Петров, Олег Меньшиков, Евгений Сытый, Таисия Вилкова, Артем Ткаченко, Юлия Франц, Евгений Стычкин, Ян Цапник, Сергей Бадюк, Марта Тимофеева

Описание:
Казаки, ведьмы, русалки, утопленницы и другие обитатели Диканьки встречаются лицом к лицу со своим создателем Николаем Гоголем, молодым писарем из Петербурга, который страдает загадочными припадками и может общаться с персонажами из потустороннего мира. Вместе со своим начальником, блестящим столичным следователем Яковым Гуро, начинающий писатель приезжает на Полтавщину расследовать таинственные убийства девушек. Здесь же он встречает свою любовь, которой суждено сыграть роковую роль в его судьбе. Но хватит ли юному литератору духу противостоять невообразимому? Ведь по слухам, которые активно разносят напуганные местные жители, за преступлениями стоит не кто иной, как сам Дьявол в обличии черного всадника.

http://www.imdb.com/title/tt6628228/?ref_=plg_rt_1
Возраст: 18+ (зрителям, достигшим 18 лет. запрещено для детей)
Дата российской премьеры: 31 августа 2017, «Каропрокат»

Продолжительность: 01:46:42
Качество видео: WEB-DL
Перевод: Не требуется (русский) iTunes
Субтитры: Отсутствуют

Видео: AVC/H.264, 1920x806 (2.40:1), 4538 kbps
Аудио: 48 kHz, AC3 Dolby Digital, 3/2 (L,C,R,l,r) + LFE ch, ~384 kbps
Код: Выделить всё
Общее
Уникальный идентификатор                 : 223472802450407054119671155957426286496 (0xA81F4BD3BB9D73758549FC209B83EFA0)
Полное имя                               : D:\Гоголь.Начало.2017.WEB-DL.[1080p].NNMClub.mkv
Формат                                   : Matroska
Версия формата                           : Version 4 / Version 2
Размер файла                             : 3,67 Гбайт
Продолжительность                        : 1 ч. 46 м.
Общий поток                              : 4924 Кбит/сек
Название фильма                          : Гоголь.Начало.2017.WEB-DL.[1080p].NNMClub
Дата кодирования                         : UTC 2017-09-30 19:23:20
Программа кодирования                    : mkvmerge v8.3.0 ('Over the Horizon') 64bit
Библиотека кодирования                   : libebml v1.3.1 + libmatroska v1.4.2

Видео
Идентификатор                            : 1
Формат                                   : AVC
Формат/Информация                        : Advanced Video Codec
Профиль формата                          : [email protected]
Параметр CABAC формата                   : Да
Параметр ReFrames формата                : 5 кадров
Идентификатор кодека                     : V_MPEG4/ISO/AVC
Продолжительность                        : 1 ч. 46 м.
Битрейт                                  : 4538 Кбит/сек
Ширина                                   : 1920 пикселей
Высота                                   : 806 пикселей
Соотношение сторон                       : 2,40:1
Режим частоты кадров                     : Постоянный
Частота кадров                           : 24,000 кадра/сек
Цветовое пространство                    : YUV
Субдискретизация насыщенности            : 4:2:0
Битовая глубина                          : 8 бит
Тип развёртки                            : Прогрессивная
Бит/(Пиксели*Кадры)                      : 0.122
Размер потока                            : 3,38 Гбайт (92%)
Заголовок                                : Гоголь.Начало.2017.WEB-DL.[1080p].NNMClub
Язык                                     : Russian
Default                                  : Да
Forced                                   : Нет
Цветовой диапазон                        : Limited
Основные цвета                           : BT.709
Характеристики трансфера                 : BT.709
Коэффициенты матрицы                     : BT.709

Аудио
Идентификатор                            : 2
Формат                                   : AC-3
Формат/Информация                        : Audio Coding 3
Расширение режима                        : CM (complete main)
Параметр Endianness формата              : Big
Идентификатор кодека                     : A_AC3
Продолжительность                        : 1 ч. 46 м.
Вид битрейта                             : Постоянный
Битрейт                                  : 384 Кбит/сек
Каналы                                   : 6 каналов
Расположение каналов                     : Front: L C R, Side: L R, LFE
Частота                                  : 48,0 КГц
Частота кадров                           : 31,250 кадров/сек (1536 spf)
Метод сжатия                             : С потерями
Размер потока                            : 293 Мбайт (8%)
Заголовок                                : iTunes
Язык                                     : Russian
Default                                  : Да
Forced                                   : Нет

Меню
00:00:00.000                             : en:1
00:05:51.958                             : en:2
00:10:17.083                             : en:3
00:15:44.041                             : en:4
00:22:17.791                             : en:5
00:27:06.791                             : en:6
00:33:22.416                             : en:7
00:40:16.791                             : en:8
00:46:53.207                             : en:9
00:54:39.290                             : en:10
01:00:58.581                             : en:11
01:07:46.164                             : en:12
01:13:40.289                             : en:13
01:20:47.830                             : en:14
01:26:59.955                             : en:15
01:32:11.121                             : en:16
01:38:34.496                             : en:17

Скриншоты:




Время раздачи: 24/7 (до появления первых 3-5 скачавших)
 
Не забывайте говорить Спасибо. Не уходите с раздачи!   
Торрент: Зарегистрирован [02 окт 2017, 06:42] Для скачивания .torrent
необходима регистрация
Или скачать с помощью
MediaGet
Статус:
Проверен
 
.torrent скачан: 0 раз
Хэш: fd47b35b74567cd8e7306a98b981bc8e63310734
Размер: 3.67 ГБ (3 940 325 660 байт)
Стать Автором раздачи
 
 
Раздал: 100 ГБ
Скачал: 0 байт
Ратио: Seed.
Сообщения: 189733
Зарегистрирован: 09 апр 2015, 20:00


  • Похожие торренты
    Ответы
    Просмотры
    Последнее сообщение

Вернуться в Отечественное кино

Ресурс не предоставляет электронные версии произведений, а занимается лишь коллекционированием и каталогизацией ссылок, присылаемых и публикуемых на форуме нашими читателями. Если вы являетесь правообладателем какого-либо представленного материала и не желаете чтобы ссылка на него находилась в нашем каталоге, свяжитесь с нами и мы незамедлительно удалим её. Файлы для обмена на трекере предоставлены пользователями сайта, и администрация не несёт ответственности за их содержание. Просьба не заливать файлы, защищенные авторскими правами, а также файлы нелегального содержания!