Гоголь. Начало (2017) WEB-DLRip [H.264]

 
 Статистика раздачи 
Размер: 1.44 ГБ   |  Зарегистрирован: 02 окт 2017, 15:53   |   .torrent скачан: 0 раз
Сидеров: 1  [ 0 байт/сек ]     Личеров: 0  [ 0 байт/сек ]  
  

Гоголь. Начало (2017) WEB-DLRip [H.264]

Сообщение aLaVodka » 02 окт 2017, 15:53

Гоголь. Начало (2017) WEB-DLRip [H.264]
«Самая тёмная ночь перед рассветом»

Производство: Россия, Продюсерский центр «Среда»
Жанр: Приключения, триллер, детектив

Режиссер: Егор Баранов
Продюсер: Александр Цекало, Артур Джанибекян, Валерий Федорович
Актеры: Александр Петров, Олег Меньшиков, Евгений Сытый, Таисия Вилкова, Артем Ткаченко, Юлия Франц, Евгений Стычкин, Ян Цапник, Сергей Бадюк, Марта Тимофеева

Описание:
Казаки, ведьмы, русалки, утопленницы и другие обитатели Диканьки встречаются лицом к лицу со своим создателем Николаем Гоголем, молодым писарем из Петербурга, который страдает загадочными припадками и может общаться с персонажами из потустороннего мира. Вместе со своим начальником, блестящим столичным следователем Яковым Гуро, начинающий писатель приезжает на Полтавщину расследовать таинственные убийства девушек. Здесь же он встречает свою любовь, которой суждено сыграть роковую роль в его судьбе. Но хватит ли юному литератору духу противостоять невообразимому? Ведь по слухам, которые активно разносят напуганные местные жители, за преступлениями стоит не кто иной, как сам Дьявол в обличии черного всадника.

http://www.imdb.com/title/tt6628228/?ref_=plg_rt_1
Возраст: 18+ (зрителям, достигшим 18 лет. запрещено для детей)
Дата российской премьеры: 31 августа 2017, «Каропрокат»

Продолжительность: 01:46:42
Качество видео: WEB-DLRip
Перевод: Не требуется (русский) iTunes
Субтитры: Отсутствуют

Видео: AVC/H.264, 1024x432 (2.40:1), ~1550 Kbps
Аудио: AC3, 6 ch, 384 Kbps
Код: Выделить всё
Общее
Уникальный идентификатор                 : 190822109983149099989974776744102218084 (0x8F8F0066AE0A7D719F647EC251BA4964)
Полное имя                               : D:\Гоголь. Начало (2017).mkv
Формат                                   : Matroska
Версия формата                           : Version 2
Размер файла                             : 1,44 Гбайт
Продолжительность                        : 1 ч. 46 м.
Общий поток                              : 1934 Кбит/сек
Дата кодирования                         : UTC 2017-10-01 00:03:34
Программа кодирования                    : mkvmerge v7.8.0 ('River Man') 32bit built on Apr  3 2015 12:11:22
Библиотека кодирования                   : libebml v1.3.1 + libmatroska v1.4.2

Видео
Идентификатор                            : 1
Формат                                   : AVC
Формат/Информация                        : Advanced Video Codec
Профиль формата                          :
Настройки формата                        : CABAC / 4 Ref Frames
Параметр CABAC формата                   : Да
Параметр RefFrames формата               : 4 кадра
Идентификатор кодека                     : V_MPEG4/ISO/AVC
Продолжительность                        : 1 ч. 46 м.
Битрейт                                  : 1549 Кбит/сек
Ширина                                   : 1024 пикселя
Высота                                   : 432 пикселя
Соотношение сторон                       : 2,40:1
Режим частоты кадров                     : Постоянный
Частота кадров                           : 24,000 кадра/сек
Цветовое пространство                    : YUV
Субдискретизация насыщенности            : 4:2:0
Битовая глубина                          : 8 бит
Тип развёртки                            : Прогрессивная
Бит/(Пиксели*Кадры)                      : 0.146
Размер потока                            : 1,13 Гбайт (78%)
Библиотека кодирования                   : x264 core 146 r2538 121396c
Настройки программы                      : cabac=1 / ref=3 / deblock=1:-1:-1 / analyse=0x3:0x113 / me=umh / subme=11 / psy=1 / psy_rd=1.00:0.15 / mixed_ref=1 / me_range=48 / chroma_me=1 / trellis=2 / 8x8dct=1 / cqm=0 / deadzone=21,11 / fast_pskip=0 / chroma_qp_offset=-3 / threads=6 / lookahead_threads=1 / sliced_threads=0 / nr=0 / decimate=1 / interlaced=0 / bluray_compat=0 / constrained_intra=0 / bframes=3 / b_pyramid=2 / b_adapt=2 / b_bias=0 / direct=3 / weightb=1 / open_gop=1 / weightp=2 / keyint=240 / keyint_min=23 / scenecut=40 / intra_refresh=0 / rc_lookahead=40 / rc=2pass / mbtree=0 / bitrate=1549 / ratetol=1.0 / qcomp=0.60 / qpmin=0 / qpmax=69 / qpstep=4 / cplxblur=20.0 / qblur=0.5 / vbv_maxrate=14000 / vbv_bufsize=14000 / nal_hrd=none / filler=0 / ip_ratio=1.40 / pb_ratio=1.30 / aq=1:1.00
Default                                  : Да
Forced                                   : Нет

Аудио
Идентификатор                            : 2
Формат                                   : AC-3
Формат/Информация                        : Audio Coding 3
Параметр Endianness формата              : Big
Идентификатор кодека                     : A_AC3
Продолжительность                        : 1 ч. 46 м.
Вид битрейта                             : Постоянный
Битрейт                                  : 384 Кбит/сек
Каналы                                   : 6 каналов
Расположение каналов                     : Front: L C R, Side: L R, LFE
Частота                                  : 48,0 КГц
Частота кадров                           : 31,250 кадров/сек (1536 SPF)
Битовая глубина                          : 16 бит
Метод сжатия                             : С потерями
Размер потока                            : 293 Мбайт (20%)
ServiceKind/String                       : Complete Main
Default                                  : Да
Forced                                   : Нет

Скриншоты:




Время раздачи: 24/7 (круглосуточно) (до появления первых 3-5 скачавших)
 
Не забывайте говорить Спасибо. Не уходите с раздачи!   
Торрент: Зарегистрирован [02 окт 2017, 15:53] Для скачивания .torrent
необходима регистрация
Или скачать с помощью
MediaGet
Статус:
Проверен
 
.torrent скачан: 0 раз
Хэш: 019f5bff9884464d1b5ede8a8b754f74bf29d359
Размер: 1.44 ГБ (1 547 685 354 байт)
Стать Автором раздачи
 
 
Раздал: 100 ГБ
Скачал: 0 байт
Ратио: Seed.
Сообщения: 189733
Зарегистрирован: 09 апр 2015, 20:00


  • Похожие торренты
    Ответы
    Просмотры
    Последнее сообщение

Вернуться в Отечественное кино

Ресурс не предоставляет электронные версии произведений, а занимается лишь коллекционированием и каталогизацией ссылок, присылаемых и публикуемых на форуме нашими читателями. Если вы являетесь правообладателем какого-либо представленного материала и не желаете чтобы ссылка на него находилась в нашем каталоге, свяжитесь с нами и мы незамедлительно удалим её. Файлы для обмена на трекере предоставлены пользователями сайта, и администрация не несёт ответственности за их содержание. Просьба не заливать файлы, защищенные авторскими правами, а также файлы нелегального содержания!