Теснота (2017) WEB-DL 1080p | iTunes

 
 Статистика раздачи 
Размер: 4.06 ГБ   |  Зарегистрирован: 05 окт 2017, 10:24   |   .torrent скачан: 4229 раз
Сидеров: 175  [ 0 байт/сек ]     Личеров: 8  [ 0 байт/сек ]  
  

Теснота (2017) WEB-DL 1080p | iTunes

Сообщение graf_t » 05 окт 2017, 10:24

Теснота

Страна: Россия
Производство: Дубляжная группа киностудии «Ленфильм», Example of Intonation, Alexander Sokurov's Fund
Год выпуска: 2017
Жанр: драма
Продолжительность: 01:57:50

Режиссер: Кантемир Балагов
Авторы сценария: Кантемир Балагов, Антон Яруш

В ролях: Дарья Жовнер, Ольга Драгунова, Артем Цыпин, Вениамин Кац, Назир Жуков, Егор Шевяков

Описание: 1998 год, Нальчик. Илана — девочка-подросток из хорошей семьи, которая всё делает наоборот. Перечит матери. Спорит с отцом. Чинит машины в автомастерской, не вылезая из спецодежды. Встречается с парнем, который не нравится её родителям. Пацанка и красавица, она идёт своим путем и жаждет свободы, но когда в доме происходит страшная трагедия, именно Илана оказывается единственной, кто способен спасти семью. Однако какой ценой..?



Перевод: не требуется (оригинал) | iTunes
Субтитры: русские (форсированные, хардсаб)


Качество: WEB-DL 1080p
Формат: МКV
Видео кодек: AVC
Аудио кодек: АС3
Видео: 1462x1080 (4:3), 25.000 fps, MPEG-4 AVC ~4 450 kbps avg
Аудио: 48.0 kHz, AC3 Dolby Digital, 2/0 (L,R) ch, ~384 kbps

Дата премьеры (РФ): 3 августа 2017, «Пионер»


Премия Каннского кинофестиваля, 2017 год
» Приз ФИПРЕССИ - особый взгляд



General
General
Unique ID : 243465838399444671323163514416220430838 (0xB729D09AB90D1717BBCE5B05D30561F6)
Complete name : Tesnota.mkv
Format : Matroska
Format version : Version 2
File size : 4.06 GiB
Duration : 1h 57mn
Overall bit rate : 4 932 Kbps
Encoded date : UTC 2017-09-18 05:24:30
Writing application : mkvmerge v7.8.0 ('River Man') 32bit built on Apr 3 2015 12:11:22
Writing library : libebml v1.3.1 + libmatroska v1.4.2

Video
ID : 1
Format : AVC
Format/Info : Advanced Video Codec
Format profile : [email protected]
Format settings, CABAC : Yes
Format settings, ReFrames : 5 frames
Codec ID : V_MPEG4/ISO/AVC
Duration : 1h 57mn
Bit rate : 4 450 Kbps
Width : 1 462 pixels
Height : 1 080 pixels
Display aspect ratio : 4:3
Frame rate mode : Constant
Frame rate : 25.000 fps
Color space : YUV
Chroma subsampling : 4:2:0
Bit depth : 8 bits
Scan type : Progressive
Bits/(Pixel*Frame) : 0.113
Stream size : 3.66 GiB (90%)
Language : English
Default : Yes
Forced : No
Color range : Limited
Color primaries : BT.709
Transfer characteristics : BT.709
Matrix coefficients : BT.709

Audio
ID : 2
Format : AC-3
Format/Info : Audio Coding 3
Mode extension : CM (complete main)
Format settings, Endianness : Big
Codec ID : A_AC3
Duration : 1h 57mn
Bit rate mode : Constant
Bit rate : 384 Kbps
Channel(s) : 2 channels
Channel positions : Front: L R
Sampling rate : 48.0 KHz
Compression mode : Lossy
Stream size : 324 MiB (8%)
Language : Russian
Default : Yes
Forced : Yes

Menu
00:00:00.000 : en:Глава 1
00:06:30.200 : en:Глава 2
00:11:41.760 : en:Глава 3
00:18:52.159 : en:Глава 4
00:24:57.879 : en:Глава 5
00:31:05.879 : en:Глава 6
00:38:13.838 : en:Глава 7
00:46:20.397 : en:Глава 8
00:56:37.797 : en:Глава 9
01:04:11.717 : en:Глава 10
01:12:02.797 : en:Глава 11
01:18:13.236 : en:Глава 12
01:23:56.595 : en:Глава 13
01:29:24.914 : en:Глава 14
01:37:29.714 : en:Глава 15
01:44:16.474 : en:Глава 16
 
Не забывайте говорить Спасибо. Не уходите с раздачи!   
Торрент: Зарегистрирован [05 окт 2017, 10:24] Для скачивания .torrent
необходима регистрация
Или скачать с помощью
MediaGet
Статус:
Проверен
 
.torrent скачан: 4229 раз
Хэш: 6e3fb3f3a001a3f9aa9afccf6b12560c7cdd9b2c
Размер: 4.06 ГБ (4 359 175 266 байт)
Стать Автором раздачи
 
 
Раздал: 100 ГБ
Скачал: 0 байт
Ратио: Seed.
Сообщения: 42545
Зарегистрирован: 31 мар 2015, 18:04


  • Похожие торренты
    Ответы
    Просмотры
    Последнее сообщение

Вернуться в Отечественное кино

Ресурс не предоставляет электронные версии произведений, а занимается лишь коллекционированием и каталогизацией ссылок, присылаемых и публикуемых на форуме нашими читателями. Если вы являетесь правообладателем какого-либо представленного материала и не желаете чтобы ссылка на него находилась в нашем каталоге, свяжитесь с нами и мы незамедлительно удалим её. Файлы для обмена на трекере предоставлены пользователями сайта, и администрация не несёт ответственности за их содержание. Просьба не заливать файлы, защищенные авторскими правами, а также файлы нелегального содержания!
cron