Про любовь. Только для взрослых (Павел Руминов, Наталья Меркулова, Алексей Чупов, Нигина Сайфуллаева, Евгений Шелякин, Резо Гигинеишвили) [2017, Россия, комедия, WEB-DLRip]

 
 Статистика раздачи 
Размер: 1.37 ГБ   |  Зарегистрирован: 16 окт 2017, 06:50   |   .torrent скачан: 0 раз
Сидеров: 1  [ 0 байт/сек ]     Личеров: 0  [ 0 байт/сек ]  
  

Про любовь. Только для взрослых (Павел Руминов, Наталья Меркулова, Алексей Чупов, Нигина Сайфуллаева, Евгений Шелякин, Резо Гигинеишвили) [2017, Россия, комедия, WEB-DLRip]

Сообщение Nakazhu » 16 окт 2017, 06:50

Про любовь. Только для взрослых
Студия: Кинокомпания «Магнум»
Жанр: комедия
Год выпуска: 2017
Продолжительность: 01:48:56
Субтитры: нет
Режиссер: Павел Руминов, Наталья Меркулова, Алексей Чупов, Нигина Сайфуллаева, Евгений Шелякин, Резо Гигинеишвили
В ролях: Джон Малкович, Ингеборга Дапкунайте, Тинатин Далакишвили, Фёдор Бондарчук, Виктория Исакова, Максим Матвеев, Анна Михалкова, Фёдор Лавров, Лукерья Ильяшенко, Владимир Яглыч, Равшана Куркова, Маруся Зыкова, Александр Паль, Гоша Куценко, Александра Бортич, Ясмина Омерович, Глеб Калюжный, Кирилл Каганович, Анна Котова-Дерябина, Анна Банщикова, Алиса Хазанова, Рано Кубаева, Юлия Снигирь, Евгений Цыганов
Описание: Москва, лето. Мегаполис занят своей жизнью, здесь каждый день что-то происходит. Спешащие по своим важным делам люди не забывают и о приобретении новых знаний и навыков. Для этого в Москве каждый может по своему вкусу найти курсы, лекции и тренинги на любую тему. Но нас будет интересовать только одна лекция: про любовь. Герои — это обычные люди, затерянные в большом мегаполисе, они будут сталкиваться и пересекаться друг с другом, и у каждого из них будет своя история любви.
Тип релиза: WEB-DLRip
Контейнер: AVI
Видео: 720x304 (2.37:1), 24 fps, XviD build 50 ~1402 kbps avg, 0.27 bit/pixel
Аудио: 48 kHz, AC3 Dolby Digital, 3/2 (L,C,R,l,r) + LFE ch, ~384 kbps
Сэмпл
Код:
Код: Выделить всё
Format                      : AVI
Format/Info                 : Audio Video Interleave
File size                   : 1.37 GiB
Duration                    : 1 h 48 min
Overall bit rate            : 1 796 kb/s
Movie name                  : pP0.L1u60Bj.2O17.O.WEB-DLRip.14OOMB
Writing application         : VirtualDubMod 1.5.10.2 (build 2540/release)
Original source form/Name   : Movie
Video
ID                          : 0
Format                      : MPEG-4 Visual
Format profile              : Advanced [email protected]
Format settings             : BVOP2
Format settings, BVOP       : 2
Format settings, QPel       : No
Format settings, GMC        : No warppoints
Format settings, Matrix     : Default (MPEG)
Codec ID                    : XVID
Codec ID/Hint               : XviD
Duration                    : 1 h 48 min
Bit rate                    : 1 403 kb/s
Width                       : 720 pixels
Height                      : 304 pixels
Display aspect ratio        : 2.35:1
Frame rate                  : 24.000 FPS
Color space                 : YUV
Chroma subsampling          : 4:2:0
Bit depth                   : 8 bits
Scan type                   : Progressive
Compression mode            : Lossy
Bits/(Pixel*Frame)          : 0.267
Stream size                 : 1.07 GiB (78%)
Writing library             : XviD 1.2.1 (UTC 2008-12-04)
Audio
ID                          : 1
Format                      : AC-3
Format/Info                 : Audio Coding 3
Format settings, Endianness : Big
Codec ID                    : 2000
Duration                    : 1 h 48 min
Bit rate mode               : Constant
Bit rate                    : 384 kb/s
Channel(s)                  : 6 channels
Channel positions           : Front: L C R, Side: L R, LFE
Sampling rate               : 48.0 kHz
Frame rate                  : 31.250 FPS (1536 SPF)
Bit depth                   : 16 bits
Compression mode            : Lossy
Stream size                 : 299 MiB (21%)
Alignment                   : Split accross interleaves
Interleave, duration        : 42  ms (1.00 video frame)
Interleave, preload duratio : 500  ms
Service kind                : Complete Main

 
Не забывайте говорить Спасибо. Не уходите с раздачи!   
Торрент: Зарегистрирован [16 окт 2017, 06:50] Для скачивания .torrent
необходима регистрация
Или скачать с помощью
MediaGet
Статус:
Проверен
 
.torrent скачан: 0 раз
Хэш: 341a6908b00774196729c901ec73241ee3c2a785
Размер: 1.37 ГБ (1 467 617 280 байт)
Стать Автором раздачи
 
 
Раздал: 0 байт
Скачал: 0 байт
Ратио: Inf.
Сообщения: 436399
Зарегистрирован: 17 апр 2014, 13:57


  • Похожие торренты
    Ответы
    Просмотры
    Последнее сообщение

Вернуться в Отечественное кино

Ресурс не предоставляет электронные версии произведений, а занимается лишь коллекционированием и каталогизацией ссылок, присылаемых и публикуемых на форуме нашими читателями. Если вы являетесь правообладателем какого-либо представленного материала и не желаете чтобы ссылка на него находилась в нашем каталоге, свяжитесь с нами и мы незамедлительно удалим её. Файлы для обмена на трекере предоставлены пользователями сайта, и администрация не несёт ответственности за их содержание. Просьба не заливать файлы, защищенные авторскими правами, а также файлы нелегального содержания!
cron