Z (Василий Сигарев) [2017, короткометражка, ужасы, комедия, WEBRip-AVC] (режиссерская версия)

 
 Статистика раздачи 
Размер: 119.18 МБ   |  Зарегистрирован: 23 окт 2017, 12:55   |   .torrent скачан: 0 раз
Сидеров: 34  [ 0 байт/сек ]     Личеров: 11  [ 0 байт/сек ]  
  

Z (Василий Сигарев) [2017, короткометражка, ужасы, комедия, WEBRip-AVC] (режиссерская версия)

Сообщение Nakazhu » 23 окт 2017, 12:55

Z
Год выпуска: 2017
Жанр: короткометражка, ужасы, комедия
Продолжительность: 00:15:38
Режиссёр: Василий Сигарев
В главных ролях: Яна Троянова, Виталия Корниенко, Иван Титяев, Николай Басков, Александр Баширов, Светлана Камынина, Владимир Симонов, Петр Коршунков, Надежда Подъяпольская, Олег Корытин
Описание: Зомби-апокалипсис может случиться уже завтра. Но теперь есть место, где возможно спастись.

Качество: WEBRip-AVC
Формат: MKV
Видео кодек: AVC
Аудио кодек: AAС
Видео: 1280x720, 25 fps, ~872 kbps avg, 0.038 bit/pixel
Аудио: 44,1 kHz, AAC, 2ch, ~126 kbps
General
Unique ID : 198761048747255097547515475401437619302 (0x9587FC4D6624AA61B14E256FDD702466)
Complete name : D:\Mult\Z.2017.WEBRip-AVC.mkv
Format : Matroska
Format version : Version 4 / Version 2
File size : 119 MiB
Duration : 16 min
Overall bit rate : 1 000 kb/s
Encoded date : UTC 2017-10-23 09:31:21
Writing application : mkvmerge v13.0.0 ('The Juggler') 64bit
Writing library : libebml v1.3.4 + libmatroska v1.4.5
Video
ID : 1
Format : AVC
Format/Info : Advanced Video Codec
Format profile : [email protected]
Format settings, CABAC : Yes
Format settings, ReFrames : 3 frames
Codec ID : V_MPEG4/ISO/AVC
Duration : 16 min
Bit rate : 872 kb/s
Width : 1 280 pixels
Height : 720 pixels
Display aspect ratio : 16:9
Frame rate mode : Constant
Frame rate : 25.000 FPS
Color space : YUV
Chroma subsampling : 4:2:0
Bit depth : 8 bits
Scan type : Progressive
Bits/(Pixel*Frame) : 0.038
Stream size : 104 MiB (87%)
Default : Yes
Forced : No
Color range : Limited
Color primaries : BT.709
Transfer characteristics : BT.709
Matrix coefficients : BT.709
Audio
ID : 2
Format : AAC
Format/Info : Advanced Audio Codec
Format profile : LC
Codec ID : A_AAC
Duration : 16 min
Bit rate : 126 kb/s
Channel(s) : 2 channels
Channel positions : Front: L R
Sampling rate : 44.1 kHz
Frame rate : 43.066 FPS (1024 spf)
Compression mode : Lossy
Stream size : 15.0 MiB (13%)
Default : Yes
Forced : No
 
Не забывайте говорить Спасибо. Не уходите с раздачи!   
Торрент: Зарегистрирован [23 окт 2017, 12:55] Для скачивания .torrent
необходима регистрация
Или скачать с помощью
MediaGet
Статус:
Проверен
 
.torrent скачан: 0 раз
Хэш: 63dadceebad2d0362537b92f7ee6e3f569c3e989
Размер: 119.18 МБ (124 965 328 байт)
Стать Автором раздачи
 
 
Раздал: 0 байт
Скачал: 0 байт
Ратио: Inf.
Сообщения: 399177
Зарегистрирован: 17 апр 2014, 13:57


  • Похожие торренты
    Ответы
    Просмотры
    Последнее сообщение

Вернуться в Отечественное кино

Ресурс не предоставляет электронные версии произведений, а занимается лишь коллекционированием и каталогизацией ссылок, присылаемых и публикуемых на форуме нашими читателями. Если вы являетесь правообладателем какого-либо представленного материала и не желаете чтобы ссылка на него находилась в нашем каталоге, свяжитесь с нами и мы незамедлительно удалим её. Файлы для обмена на трекере предоставлены пользователями сайта, и администрация не несёт ответственности за их содержание. Просьба не заливать файлы, защищенные авторскими правами, а также файлы нелегального содержания!
cron