Салют-7. История одного подвига (2017) HDTVRip-AVC от New-Team

 
 Статистика раздачи 
Размер: 744.67 МБ   |  Зарегистрирован: 26 окт 2017, 12:27   |   .torrent скачан: 1758 раз
Сидеров: 239  [ 0 байт/сек ]     Личеров: 10  [ 0 байт/сек ]  
  

Салют-7. История одного подвига (2017) HDTVRip-AVC от New-Team

Сообщение graf_t » 26 окт 2017, 12:27


Мы "В КОНТАКТЕ"


Страна: Россия
Производство: Телеканал «Россия»

Жанр: исторический, документальный, научно-популярный
Год выпуска: 2017
Продолжительность: 00:44:21

Перевод: Не требуется
Cубтитры: нет
Оригинальная аудиодорожка: русский

Режиссер: Александр Сладков

Описание:
Фильм о драматических событиях, происходивших на орбите в 1985 году, и о настоящих героях, участвовавших в спасении космической станции «Салют-7».
Владимир Джанибеков и Виктор Савиных отправились в космос, чтобы спасти неуправляемую станцию. Они летели навстречу неизвестности, но были уверены, что смогут выполнить это беспрецедентное по сложности задание. На Земле уверенности в благополучном возвращении космонавтов было немного. На орбите развернулся настоящий космический детектив.
Фильм вышел накануне кинопремьеры - игрового фильма «Салют-7». Итак, зрители смогут сначала погрузиться в исторический контекст и технические нюансы, а затем пережить невероятную историю уже на большом экране.





Источник: HDTVRip 1080i
Качество видео: HDTVRip-AVC
Формат видео: MKV

Видео: 1024x576 (16:9), 25 fps, H264 ~ 2154 kbps avg, 0.146 bit/pixel
Аудио: 48 kHz, Dolby Digital AC3 2.0, 192 kbps

Раздача от:
Общее
Полное имя : Salyut-7.Istoriya.odnogo.podviga.2017.BDRip-AVC_[New-team]_by_AVP_Studio.mkv
Формат : Matroska
Версия формата : Version 2
Размер файла : 745 Мбайт
Продолжительность : 44 м. 21 с.
Общий поток : 2347 Кбит/сек
Дата кодирования : UTC 2017-10-25 23:07:59
Программа кодирования : mkvmerge v6.1.0 ('Old Devil') built on Mar 4 2013 09:10:42
Библиотека кодирования : libebml v1.3.0 + libmatroska v1.4.0

Видео
Идентификатор : 1
Формат : AVC
Формат/Информация : Advanced Video Codec
Профиль формата : [email protected]
Параметр CABAC формата : Да
Параметр RefFrames формата : 10 кадров
Идентификатор кодека : V_MPEG4/ISO/AVC
Продолжительность : 44 м. 21 с.
Битрейт : 2154 Кбит/сек
Ширина : 1024 пикселя
Высота : 576 пикселей
Соотношение сторон : 16:9
Режим частоты кадров : Постоянный
Частота кадров : 25,000 кадров/сек
Цветовое пространство : YUV
Субдискретизация насыщенности : 4:2:0
Битовая глубина : 8 бит
Тип развёртки : Прогрессивная
Бит/(Пиксели*Кадры) : 0.146
Размер потока : 669 Мбайт (90%)
Библиотека кодирования : x264 core 130 r2273 b3065e6
Настройки программы : cabac=1 / ref=10 / deblock=1:-3:-2 / analyse=0x3:0x113 / me=umh / subme=10 / psy=1 / psy_rd=1.00:0.00 / mixed_ref=1 / me_range=32 / chroma_me=1 / trellis=2 / 8x8dct=1 / cqm=0 / deadzone=21,11 / fast_pskip=1 / chroma_qp_offset=-2 / threads=6 / lookahead_threads=1 / sliced_threads=0 / nr=0 / decimate=0 / interlaced=0 / bluray_compat=0 / constrained_intra=0 / bframes=8 / b_pyramid=2 / b_adapt=2 / b_bias=0 / direct=3 / weightb=1 / open_gop=0 / weightp=2 / keyint=250 / keyint_min=25 / scenecut=40 / intra_refresh=0 / rc_lookahead=40 / rc=2pass / mbtree=1 / bitrate=2154 / ratetol=1.0 / qcomp=0.60 / qpmin=0 / qpmax=69 / qpstep=4 / cplxblur=20.0 / qblur=0.5 / ip_ratio=1.40 / aq=1:1.00
Default : Да
Forced : Нет

Аудио
Идентификатор : 2
Формат : AC-3
Формат/Информация : Audio Coding 3
Параметр Endianness формата : Big
Идентификатор кодека : A_AC3
Продолжительность : 44 м. 21 с.
Вид битрейта : Постоянный
Битрейт : 192 Кбит/сек
Каналы : 2 канала
Расположение каналов : Front: L R
Частота : 48,0 КГц
Частота кадров : 31,250 кадров/сек (1536 SPF)
Битовая глубина : 16 бит
Метод сжатия : С потерями
Размер потока : 60,9 Мбайт (8%)
Default : Да
Forced : Нет


 
Не забывайте говорить Спасибо. Не уходите с раздачи!   
Торрент: Зарегистрирован [26 окт 2017, 12:27] Для скачивания .torrent
необходима регистрация
Или скачать с помощью
MediaGet
Статус:
Проверен
 
.torrent скачан: 1758 раз
Хэш: 86b155a1abc389f75a7deb7464e7b32515193682
Размер: 744.67 МБ (780 842 271 байт)
Стать Автором раздачи
 
 
Раздал: 100 ГБ
Скачал: 0 байт
Ратио: Seed.
Сообщения: 51222
Зарегистрирован: 31 мар 2015, 18:04


  • Похожие торренты
    Ответы
    Просмотры
    Последнее сообщение

Вернуться в Отечественное кино

Ресурс не предоставляет электронные версии произведений, а занимается лишь коллекционированием и каталогизацией ссылок, присылаемых и публикуемых на форуме нашими читателями. Если вы являетесь правообладателем какого-либо представленного материала и не желаете чтобы ссылка на него находилась в нашем каталоге, свяжитесь с нами и мы незамедлительно удалим её. Файлы для обмена на трекере предоставлены пользователями сайта, и администрация не несёт ответственности за их содержание. Просьба не заливать файлы, защищенные авторскими правами, а также файлы нелегального содержания!
cron