Следы на воде (Александр Анисимов) [2017, Драма, исторический, SATRip]

 
 Статистика раздачи 
Размер: 1.37 ГБ   |  Зарегистрирован: 07 ноя 2017, 19:17   |   .torrent скачан: 0 раз
Сидеров: 34  [ 0 байт/сек ]     Личеров: 11  [ 0 байт/сек ]  
  

Следы на воде (Александр Анисимов) [2017, Драма, исторический, SATRip]

Сообщение Nakazhu » 07 ноя 2017, 19:17

Следы на воде


Жанр: Драма, исторический
Год выпуска: 2017
Продолжительность: 01:35:32
Режиссёр: Александр Анисимов
В ролях: Артём Курень, Пётр Юрченков, Вероника Пляшкевич, Сергей Юревич, Татьяна Чердынцева, Анатолий Терпицкий, Игорь Денисов, Игорь Сигов, Виктор Манаев, Евгений Никитин, Андрей Кривецкий, Валерий Зеленский, Дмитрий Пустильник, Зоя Белохвостик, Сергей Савенков, Геннадий Фомин
Описание: Художественная реконструкция реальных событий, рассказывающих о борьбе белорусской милиции с бандитизмом в первые послевоенные годы.

Качество видео: SATRip
Формат видео: AVI
Видео: 720x304 (2.35:1), 25.000 fps, XviD build 73, 1848 Kbps, 0.33 Bits/Pixel
Аудио: 48 kHz, AC3 Dolby Digital, 2 ch, 192 Kbps
Релиз группа:
General
Complete name : C:\Users\Andreas\Downloads\Следы на воде.2017.SATRip.Files-x.avi
Format : AVI
Format/Info : Audio Video Interleave
File size : 1.37 GiB
Duration : 1h 35mn
Overall bit rate : 2 050 Kbps
Writing application : VirtualDubMod 1.5.10.3 | www.virtualdub-fr.org || (build 2550/release)
Writing library : VirtualDubMod build 2550/release
Video #0
ID : 0
Format : MPEG-4 Visual
Format profile : Advanced [email protected]
Format settings, BVOP : 1
Format settings, QPel : No
Format settings, GMC : No warppoints
Format settings, Matrix : Custom
Codec ID : XVID
Codec ID/Hint : XviD
Duration : 1h 35mn
Bit rate : 1 848 Kbps
Width : 720 pixels
Height : 304 pixels
Display aspect ratio : 2.35:1
Frame rate : 25.000 fps
Color space : YUV
Chroma subsampling : 4:2:0
Bit depth : 8 bits
Scan type : Progressive
Compression mode : Lossy
Bits/(Pixel*Frame) : 0.338
Stream size : 1.23 GiB (90%)
Writing library : XviD 73
Audio #1
ID : 1
Format : AC-3
Format/Info : Audio Coding 3
Mode extension : CM (complete main)
Format settings, Endianness : Big
Codec ID : 2000
Duration : 1h 35mn
Bit rate mode : Constant
Bit rate : 192 Kbps
Channel(s) : 2 channels
Channel positions : Front: L R
Sampling rate : 48.0 KHz
Bit depth : 16 bits
Compression mode : Lossy
Stream size : 131 MiB (9%)
Alignment : Split accross interleaves
Interleave, duration : 40 ms (1.00 video frame)
Interleave, preload duration : 500 ms
 
Не забывайте говорить Спасибо. Не уходите с раздачи!   
Торрент: Зарегистрирован [07 ноя 2017, 19:17] Для скачивания .torrent
необходима регистрация
Или скачать с помощью
MediaGet
Статус:
Проверен
 
.torrent скачан: 0 раз
Хэш: 7e6392c829cd1d25e8c00e17700947902a4caf2e
Размер: 1.37 ГБ (1 469 378 560 байт)
Стать Автором раздачи
 
 
Раздал: 0 байт
Скачал: 0 байт
Ратио: Inf.
Сообщения: 399887
Зарегистрирован: 17 апр 2014, 13:57


  • Похожие торренты
    Ответы
    Просмотры
    Последнее сообщение

Вернуться в Отечественное кино

Ресурс не предоставляет электронные версии произведений, а занимается лишь коллекционированием и каталогизацией ссылок, присылаемых и публикуемых на форуме нашими читателями. Если вы являетесь правообладателем какого-либо представленного материала и не желаете чтобы ссылка на него находилась в нашем каталоге, свяжитесь с нами и мы незамедлительно удалим её. Файлы для обмена на трекере предоставлены пользователями сайта, и администрация не несёт ответственности за их содержание. Просьба не заливать файлы, защищенные авторскими правами, а также файлы нелегального содержания!
cron