Салют-7 (Клим Шипенко) [2017, драма, приключения, триллер, WEB-DLRip-AVC]

 
 Статистика раздачи 
Размер: 1.46 ГБ   |  Зарегистрирован: 22 ноя 2017, 01:04   |   .torrent скачан: 0 раз
Сидеров: 1  [ 0 байт/сек ]     Личеров: 0  [ 0 байт/сек ]  
  

Салют-7 (Клим Шипенко) [2017, драма, приключения, триллер, WEB-DLRip-AVC]

Сообщение Nakazhu » 22 ноя 2017, 01:04

САЛЮТ - 7

Жанр: драма, приключения, триллер
Год выпуска: 2017
Продолжительность: 01:46:01
Режиссер: Клим Шипенко
В ролях: Владимир Вдовиченков (Федоров Владимир Джанибеков), Павел Деревянко (Виктор Савиных), Александр Самойленко (Валерий Рюмин, руководитель полёта), Виталий Хаев, Оксана Фандера, Любовь Аксенова, Роман Перелыгин (Плахов), Полина Руденко (Оля, дочь космонавта Владимира Федорова), Александра Серебрякова (сотрудница ЦУП), Мария Миронова (Нина, жена Федорова), Наталья Кудряшова, Александр Ратников
Описание: Космическая станция «Салют-7», находящаяся на орбите в беспилотном режиме, неожиданно перестает отвечать на сигналы центра управления полетом. Принято решение об отправке на орбиту спасательной экспедиции. Космический экипаж должен найти «мертвую» станцию и впервые в мире провести стыковку с 20-тонной глыбой неуправляемого железа.
Космонавты понимают, что шансов вернуться на Землю у них немного. Но этот рискованный путь — единственно возможный. Они должны не только проникнуть на «Салют-7», но и оживить его. Смогут ли два человека предотвратить неминуемую катастрофу и спасти планету от падения станции? Спасательная экспедиция превращается в опасное испытание. На орбите разворачивается настоящий космический детектив. Фильм основан на реальных событиях: полет к станции «Салют-7» в 1985 году считается самым сложным полетом в истории космонавтики.

Качество: WEB-DLRip-AVC (исходник - SALUT7_WEB_DL_1080p-BLUEBIRD)
Формат видео: MKV
Видео: x264, 1024x430 (2.40:1) 25 fps, ~1543 kbps, 0.140 bit/pixel
Аудио: 48 kHz, AC3 Dolby Digital, 5.1 (Front: L C R, Side: L R, LFE) ch, ~384 kbps
Format : Matroska
Format version : Version 4 / Version 2
File size : 1.46 GiB
Duration : 1 h 46 min
Overall bit rate : 1 967 kb/s
Movie name : Салют-7 (2017) :: AFM ::
Encoded date : UTC 2017-11-21 21:42:27
Writing application : mkvmerge v8.3.0 ('Over the Horizon') 32bit
Writing library : libebml v1.3.1 + libmatroska v1.4.2
Video
ID : 1
Format : AVC
Format/Info : Advanced Video Codec
Format profile : [email protected]
Format settings, CABAC : Yes
Format settings, ReFrames : 12 frames
Codec ID : V_MPEG4/ISO/AVC
Duration : 1 h 46 min
Bit rate : 1 544 kb/s
Width : 1 024 pixels
Height : 430 pixels
Display aspect ratio : 2.40:1
Frame rate mode : Constant
Frame rate : 25.000 FPS
Color space : YUV
Chroma subsampling : 4:2:0
Bit depth : 8 bits
Scan type : Progressive
Bits/(Pixel*Frame) : 0.140
Stream size : 1.14 GiB (78%)
Title : WEB-DLRip by AFM
Writing library : x264 core 152 r2851+45 9658d1a 7mod [[email protected] X86_64]
Encoding settings : cabac=1 / ref=12 / deblock=1:-2:-2 / analyse=0x3:0x133 / me=umh / subme=10 / psy=1 / fade_compensate=0.00 / psy_rd=1.00:0.00 / mixed_ref=1 / me_range=32 / chroma_me=0 / trellis=2 / 8x8dct=1 / cqm=0 / deadzone=21,11 / fast_pskip=0 / chroma_qp_offset=-2 / threads=6 / lookahead_threads=1 / sliced_threads=0 / nr=0 / decimate=1 / interlaced=0 / bluray_compat=0 / constrained_intra=0 / fgo=0 / bframes=14 / b_pyramid=2 / b_adapt=2 / b_bias=0 / direct=1 / weightb=1 / open_gop=0 / weightp=2 / keyint=250 / keyint_min=25 / scenecut=40 / intra_refresh=0 / rc_lookahead=90 / rc=crf / mbtree=0 / crf=18.9000 / qcomp=0.65 / qpmin=0:0:0 / qpmax=69:69:69 / qpstep=4 / vbv_maxrate=50000 / vbv_bufsize=62500 / crf_max=0.0 / nal_hrd=none / filler=0 / ip_ratio=1.35 / pb_ratio=1.25 / aq=3:0.80 / aq-sensitivity=10.00 / aq-factor=1.00:1.00:1.00 / aq2=0 / aq3=0
Language : English
Default : Yes
Forced : No
Audio
ID : 2
Format : AC-3
Format/Info : Audio Coding 3
Mode extension : CM (complete main)
Format settings, Endianness : Big
Codec ID : A_AC3
Duration : 1 h 46 min
Bit rate mode : Constant
Bit rate : 384 kb/s
Channel(s) : 6 channels
Channel positions : Front: L C R, Side: L R, LFE
Sampling rate : 48.0 kHz
Frame rate : 31.250 FPS (1536 spf)
Compression mode : Lossy
Stream size : 291 MiB (20%)
Title : AC3 5.1 ~384 kbps
Language : Russian
Default : Yes
Forced : No
Menu
00:00:00.000 : en:Глава 1
00:06:40.400 : en:Глава 2
00:11:05.600 : en:Глава 3
00:18:02.120 : en:Глава 4
00:24:19.760 : en:Глава 5
00:30:39.960 : en:Глава 6
00:37:44.000 : en:Глава 7
00:43:57.120 : en:Глава 8
00:49:33.800 : en:Глава 9
00:56:28.360 : en:Глава 10
01:03:01.080 : en:Глава 11
01:09:37.040 : en:Глава 12
01:16:42.440 : en:Глава 13
01:24:57.280 : en:Глава 14
01:31:32.720 : en:Глава 15
01:37:10.960 : en:Глава 16
x264 [info]: frame I:1160 Avg QP:16.80 size: 51186
x264 [info]: frame P:38860 Avg QP:18.45 size: 16987
x264 [info]: frame B:119006 Avg QP:20.92 size: 4517
x264 [info]: consecutive B-frames: 1.4% 2.9% 4.5% 68.8% 6.0% 12.2% 0.7% 0.9% 0.2% 0.1% 0.1% 0.1% 0.1% 0.6% 1.4%
x264 [info]: mb I I16..4: 6.3% 70.0% 23.7%
x264 [info]: mb P I16..4: 0.7% 6.4% 1.2% P16..4: 42.0% 24.5% 17.6% 0.9% 0.3% skip: 6.5%
x264 [info]: mb B I16..4: 0.0% 0.4% 0.1% B16..8: 38.3% 9.2% 2.3% direct: 4.9% skip:44.9% L0:36.0% L1:48.4% BI:15.6%
x264 [info]: 8x8 transform intra:75.3% inter:58.5%
x264 [info]: coded y,uvDC,uvAC intra: 85.6% 77.1% 51.6% inter: 18.9% 12.3% 2.1%
x264 [info]: i16 v,h,dc,p: 36% 16% 12% 36%
x264 [info]: i8 v,h,dc,ddl,ddr,vr,hd,vl,hu: 10% 9% 7% 9% 13% 13% 13% 12% 14%
x264 [info]: i4 v,h,dc,ddl,ddr,vr,hd,vl,hu: 9% 9% 4% 10% 15% 14% 14% 11% 14%
x264 [info]: i8c dc,h,v,p: 44% 24% 17% 14%
x264 [info]: Weighted P-Frames: Y:97.8% UV:2.5%
x264 [info]: ref P L0: 53.9% 11.5% 16.0% 4.8% 3.9% 2.6% 2.3% 1.2% 1.1% 0.9% 0.9% 0.8% 0.0% 0.0%
x264 [info]: ref B L0: 81.5% 8.8% 3.7% 1.8% 1.1% 0.9% 0.7% 0.5% 0.4% 0.3% 0.2%
x264 [info]: ref B L1: 96.2% 3.8%
x264 [info]: kb/s:1581.00
 
Не забывайте говорить Спасибо. Не уходите с раздачи!   
Торрент: Зарегистрирован [22 ноя 2017, 01:04] Для скачивания .torrent
необходима регистрация
Или скачать с помощью
MediaGet
Статус:
Проверен
 
.torrent скачан: 0 раз
Хэш: 5283f53560261951a11788553738e1951decdad9
Размер: 1.46 ГБ (1 563 826 602 байт)
Стать Автором раздачи
 
 
Раздал: 0 байт
Скачал: 0 байт
Ратио: Inf.
Сообщения: 399177
Зарегистрирован: 17 апр 2014, 13:57


  • Похожие торренты
    Ответы
    Просмотры
    Последнее сообщение

Вернуться в Отечественное кино

Ресурс не предоставляет электронные версии произведений, а занимается лишь коллекционированием и каталогизацией ссылок, присылаемых и публикуемых на форуме нашими читателями. Если вы являетесь правообладателем какого-либо представленного материала и не желаете чтобы ссылка на него находилась в нашем каталоге, свяжитесь с нами и мы незамедлительно удалим её. Файлы для обмена на трекере предоставлены пользователями сайта, и администрация не несёт ответственности за их содержание. Просьба не заливать файлы, защищенные авторскими правами, а также файлы нелегального содержания!
cron