Аритмия (2017) WEB-DL [H.264/720p-LQ]

 
 Статистика раздачи 
Размер: 3.58 ГБ   |  Зарегистрирован: 22 ноя 2017, 01:35   |   .torrent скачан: 0 раз
Сидеров: 1  [ 0 байт/сек ]     Личеров: 0  [ 0 байт/сек ]  
  

Аритмия (2017) WEB-DL [H.264/720p-LQ]

Сообщение apple2000 » 22 ноя 2017, 01:35

Аритмия (2017) WEB-DL [H.264/720p-LQ]

Производство: Россия / Кинокомпания СТВ, Марс Медиа Энтертейнмент
Жанр: Драма, мелодрама

Режиссер: Борис Хлебников
Продюсер: Рубен Дишдишян, Сергей Сельянов, Наталья Дрозд
Актеры: Александр Яценко, Ирина Горбачева, Николай Шрайбер, Максим Лагашкин, Альбина Тиханова, Александр Самойленко, Елена Дробышева, Евгений Муравич, Анна Котова, Надежда Маркина

Описание:
Олег - талантливый врач, работает на «скорой», которая мчится от пациента к пациенту. Олег знает: его приезд может изменить всё. Каждый его успех делает мир лучше. Самое важное — там, где он пытается совершить невозможное. А остальное может подождать: семья, карьера, своя жизнь… Что с ней случилось? Пока Олег спасал других, жена отчаялась и решила подать на развод, а в больнице появился новый начальник, который печется только о статистике и правилах. А Олег все спешит с вызова на вызов, несется по улице, чтобы всё изменить. И кто знает, какая задача легче: спасать других или спасти себя?

http://www.imdb.com/title/tt6952604/?ref_=plg_rt_1
Возраст: 18+ (зрителям, достигшим 18 лет. запрещено для детей)
Дата мировой премьеры: 30 июня 2017
Дата российской премьеры: 12 октября 2017, «ПРОвзгляд»

Продолжительность: 01:55:52
Качество видео: WEB-DL
Перевод: Не требуется (русский) iTunes
Субтитры: Отсутствуют

Видео: AVC/H.264, 1280x692 (1.85:1), ~4035 Kbps
Аудио: AC3, 6 ch, 384 Kbps
Код: Выделить всё
Общее
Уникальный идентификатор                 : 236251361100762721120345055430718329805 (0xB1BC5B693E07713680506892994913CD)
Полное имя                               : D:\Аритмия (2017).mkv
Формат                                   : Matroska
Версия формата                           : Version 2
Размер файла                             : 3,58 Гбайт
Продолжительность                        : 1 ч. 55 м.
Общий поток                              : 4420 Кбит/сек
Дата кодирования                         : UTC 2017-11-15 19:35:48
Программа кодирования                    : mkvmerge v8.3.0 ('Over the Horizon') 64bit
Библиотека кодирования                   : libebml v1.3.1 + libmatroska v1.4.2

Видео
Идентификатор                            : 1
Формат                                   : AVC
Формат/Информация                        : Advanced Video Codec
Профиль формата                          : [url=http://nnm-club.name/mailto:[email protected]][email protected][/url]
Настройки формата                        : 2 Ref Frames
Параметр CABAC формата                   : Нет
Параметр RefFrames формата               : 2 кадра
Идентификатор кодека                     : V_MPEG4/ISO/AVC
Продолжительность                        : 1 ч. 55 м.
Битрейт                                  : 4035 Кбит/сек
Ширина                                   : 1280 пикселей
Высота                                   : 692 пикселя
Соотношение сторон                       : 1,85:1
Режим частоты кадров                     : Постоянный
Частота кадров                           : 24,000 кадра/сек
Цветовое пространство                    : YUV
Субдискретизация насыщенности            : 4:2:0
Битовая глубина                          : 8 бит
Тип развёртки                            : Прогрессивная
Бит/(Пиксели*Кадры)                      : 0.190
Размер потока                            : 3,27 Гбайт (91%)
Язык                                     : English
Default                                  : Да
Forced                                   : Нет
Цветовой диапазон                        : Limited
Основные цвета                           : BT.709
Характеристики трансфера                 : BT.709
Коэффициенты матрицы                     : BT.709

Аудио
Идентификатор                            : 2
Формат                                   : AC-3
Формат/Информация                        : Audio Coding 3
Идентификатор кодека                     : A_AC3
Продолжительность                        : 1 ч. 55 м.
Вид битрейта                             : Постоянный
Битрейт                                  : 384 Кбит/сек
Каналы                                   : 6 каналов
Расположение каналов                     : Front: L C R, Side: L R, LFE
Частота                                  : 48,0 КГц
Частота кадров                           : 31,250 кадров/сек (1536 SPF)
Битовая глубина                          : 16 бит
Метод сжатия                             : С потерями
Размер потока                            : 318 Мбайт (9%)
Язык                                     : Russian
ServiceKind/String                       : Complete Main
Default                                  : Да
Forced                                   : Нет

Меню
00:00:00.000                             : en:Глава 1
00:08:32.000                             : en:Глава 2
00:14:01.416                             : en:Глава 3
00:20:55.541                             : en:Глава 4
00:26:38.999                             : en:Глава 5
00:32:19.999                             : en:Глава 6
00:38:51.957                             : en:Глава 7
00:45:15.248                             : en:Глава 8
00:52:48.831                             : en:Глава 9
00:59:20.414                             : en:Глава 10
01:05:48.247                             : en:Глава 11
01:11:01.413                             : en:Глава 12
01:18:18.413                             : en:Глава 13
01:25:36.038                             : en:Глава 14
01:33:46.913                             : en:Глава 15
01:40:13.996                             : en:Глава 16
01:45:58.246                             : en:Глава 17

Скриншоты:




Время раздачи: 24/7 (круглосуточно) (до появления первых 3-5 скачавших)
 
Не забывайте говорить Спасибо. Не уходите с раздачи!   
Торрент: Зарегистрирован [22 ноя 2017, 01:35] Для скачивания .torrent
необходима регистрация
Или скачать с помощью
MediaGet
Статус:
Проверен
 
.torrent скачан: 0 раз
Хэш: 4160d46c9ccee683ce4ff21cdee12b0be6c0f823
Размер: 3.58 ГБ (3 841 485 700 байт)
Стать Автором раздачи
 
 
Раздал: 0 байт
Скачал: 0 байт
Ратио: Inf.
Сообщения: 30970
Зарегистрирован: 05 окт 2014, 15:23


  • Похожие торренты
    Ответы
    Просмотры
    Последнее сообщение

Вернуться в Отечественное кино

Ресурс не предоставляет электронные версии произведений, а занимается лишь коллекционированием и каталогизацией ссылок, присылаемых и публикуемых на форуме нашими читателями. Если вы являетесь правообладателем какого-либо представленного материала и не желаете чтобы ссылка на него находилась в нашем каталоге, свяжитесь с нами и мы незамедлительно удалим её. Файлы для обмена на трекере предоставлены пользователями сайта, и администрация не несёт ответственности за их содержание. Просьба не заливать файлы, защищенные авторскими правами, а также файлы нелегального содержания!