Право последней ночи (Павел Снисаренко) [2017, драма, мелодрама, WEB-DLRip]

 
 Статистика раздачи 
Размер: 1.37 ГБ   |  Зарегистрирован: 22 ноя 2017, 07:00   |   .torrent скачан: 0 раз
Сидеров: 34  [ 0 байт/сек ]     Личеров: 11  [ 0 байт/сек ]  
  

Право последней ночи (Павел Снисаренко) [2017, драма, мелодрама, WEB-DLRip]

Сообщение Nakazhu » 22 ноя 2017, 07:00

Право последней ночи
Жанр: драма, мелодрама
Год выпуска: 2017
Продолжительность: 01:28:43
Режиссёр: Павел Снисаренко
В ролях: Олеся Фаттахова, Александр Константинов, Руслан Чернецкий, Анна Богдан, Макар Кравченко

Описание: Супруги Елена и Андрей жили без бед, растили сынишку Антона, пока прошлое Лены не дало о себе знать. В жизни семьи появляется Саша, который давно и безнадежно любит Елену. Он идёт на все, чтобы добиться ее. Готов разрушить их семью. Но козни Саши оборачиваются трагедией. Гибнет сын Лены и Андрея, а сам Саша оказывается в тюрьме. Проходит три года. Лена винит во всём Андрея. Они оба так и не смогли смириться со случившимся. Судьба снова сводит всех троих там, где никто этого не ждет. Их противостояние снова может закончится трагически…
Кинопоиск
Sample
Качество видео: WEB-DLRip
Формат видео: AVI
Видео: 720x400 (1.80:1), 25 fps, XviD build 73 ~2007 kbps avg, 0.279 bit/pixel
Аудио: 48 kHz, AC3 Dolby Digital, 2/0 (L,R) ch, ~192 kbps
General
Complete name : D:\Право последней ночи 2017 WEB-DLRip.avi
Format : AVI
Format/Info : Audio Video Interleave
File size : 1.37 GiB
Duration : 1h 28mn
Overall bit rate : 2 208 Kbps
Writing application : VirtualDubMod 1.5.10.3 | www.virtualdub-fr.org || (build 2550/release)
Writing library : VirtualDubMod build 2550/release
Video
ID : 0
Format : MPEG-4 Visual
Format profile : Advanced [email protected]
Format settings, BVOP : 1
Format settings, QPel : No
Format settings, GMC : No warppoints
Format settings, Matrix : Custom
Codec ID : XVID
Codec ID/Hint : XviD
Duration : 1h 28mn
Bit rate : 2 007 Kbps
Width : 720 pixels
Height : 400 pixels
Display aspect ratio : 16:9
Frame rate : 25.000 fps
Color space : YUV
Chroma subsampling : 4:2:0
Bit depth : 8 bits
Scan type : Progressive
Compression mode : Lossy
Bits/(Pixel*Frame) : 0.279
Stream size : 1.24 GiB (91%)
Writing library : XviD 73
Audio
ID : 1
Format : AC-3
Format/Info : Audio Coding 3
Mode extension : CM (complete main)
Format settings, Endianness : Big
Codec ID : 2000
Duration : 1h 28mn
Bit rate mode : Constant
Bit rate : 192 Kbps
Channel count : 2 channels
Channel positions : Front: L R
Sampling rate : 48.0 KHz
Bit depth : 16 bits
Compression mode : Lossy
Stream size : 122 MiB (9%)
Alignment : Split accross interleaves
Interleave, duration : 40 ms (1.00 video frame)
Interleave, preload duration : 500 ms

 
Не забывайте говорить Спасибо. Не уходите с раздачи!   
Торрент: Зарегистрирован [22 ноя 2017, 07:00] Для скачивания .torrent
необходима регистрация
Или скачать с помощью
MediaGet
Статус:
Проверен
 
.torrent скачан: 0 раз
Хэш: f13b55760ddc824f43036fd5367ff1daeae62f02
Размер: 1.37 ГБ (1 469 388 800 байт)
Стать Автором раздачи
 
 
Раздал: 0 байт
Скачал: 0 байт
Ратио: Inf.
Сообщения: 399188
Зарегистрирован: 17 апр 2014, 13:57


  • Похожие торренты
    Ответы
    Просмотры
    Последнее сообщение

Вернуться в Отечественное кино

Ресурс не предоставляет электронные версии произведений, а занимается лишь коллекционированием и каталогизацией ссылок, присылаемых и публикуемых на форуме нашими читателями. Если вы являетесь правообладателем какого-либо представленного материала и не желаете чтобы ссылка на него находилась в нашем каталоге, свяжитесь с нами и мы незамедлительно удалим её. Файлы для обмена на трекере предоставлены пользователями сайта, и администрация не несёт ответственности за их содержание. Просьба не заливать файлы, защищенные авторскими правами, а также файлы нелегального содержания!
cron