Салют-7 (2017) WEB-DLRip [H.264]

 
 Статистика раздачи 
Размер: 1.65 ГБ   |  Зарегистрирован: 22 ноя 2017, 17:42   |   .torrent скачан: 0 раз
Сидеров: 1  [ 0 байт/сек ]     Личеров: 0  [ 0 байт/сек ]  
  

Салют-7 (2017) WEB-DLRip [H.264]

Сообщение apple2000 » 22 ноя 2017, 17:42

Салют-7 (2017) WEB-DLRip [H.264]

Производство: Россия, Канал Россия, Кинокомпания CTB, Lemon Films Studio
Жанр: драма, приключения, триллер

Режиссер: Клим Шипенко
Актеры: Владимир Вдовиченков, Павел Деревянко, Александр Самойленко, Виталий Хаев, Оксана Фандера, Любовь Аксенова, Роман Перелыгин, Полина Руденко, Александра Серебрякова, Мария Миронова

Описание:
Космическая станция «Салют-7», находящаяся на орбите в беспилотном режиме, неожиданно перестает отвечать на сигналы центра управления полетом. Принято решение об отправке на орбиту спасательной экспедиции. Космический экипаж должен найти «мертвую» станцию и впервые в мире провести стыковку с 20-тонной глыбой неуправляемого железа.
Космонавты понимают, что шансов вернуться на Землю у них немного. Но этот рискованный путь — единственно возможный. Они должны не только проникнуть на «Салют-7», но и оживить его. Смогут ли два человека предотвратить неминуемую катастрофу и спасти планету от падения станции? Спасательная экспедиция превращается в опасное испытание. На орбите разворачивается настоящий космический детектив. Фильм основан на реальных событиях: полет к станции «Салют-7» в 1985 году считается самым сложным полетом в истории космонавтики.

http://www.imdb.com/title/tt6537238/?ref_=plg_rt_1
Возраст: 12+ (зрителям, достигшим 12 лет)
Дата мировой премьеры: 21 сентября 2017
Дата российской премьеры: 12 октября 2017, «Наше Кино»

Релиз от: ExKinoRay
Продолжительность: 01:46:01
Качество видео: WEB-DLRip
Перевод: Не требуется (русский) iTunes
Субтитры: Отсутствуют

Видео: AVC/H.264, 1024x430 , ~1851 kbps
Аудио: AC3, 6 ch, 384 Kbps
Код: Выделить всё
Общее
Уникальный идентификатор                 : 191028620899986717111088890726902305745 (0x8FB6C62CE68B1E149CFC2F37155293D1)
Полное имя                               : D:\Salut-7.2017.WEB-DLRip.AVC.NNM-CLUB.mkv
Формат                                   : Matroska
Версия формата                           : Version 2
Размер файла                             : 1,65 Гбайт
Продолжительность                        : 1 ч. 46 м.
Общий поток                              : 2233 Кбит/сек
Название фильма                          : Салют-7 2017 from ExKinoRay
Дата кодирования                         : UTC 2017-11-21 02:28:41
Программа кодирования                    : mkvmerge v5.6.0 ('Kenya Kane') built on May 27 2012 16:44:04
Библиотека кодирования                   : libebml v1.2.3 + libmatroska v1.3.0

Видео
Идентификатор                            : 1
Формат                                   : AVC
Формат/Информация                        : Advanced Video Codec
Профиль формата                          : [url=http://nnm-club.name/mailto:[email protected]][email protected][/url]
Параметр CABAC формата                   : Да
Параметр ReFrames формата                : 10 кадров
Идентификатор кодека                     : V_MPEG4/ISO/AVC
Продолжительность                        : 1 ч. 46 м.
Битрейт                                  : 1851 Кбит/сек
Ширина                                   : 1024 пикселя
Высота                                   : 430 пикселей
Соотношение сторон                       : 2,40:1
Режим частоты кадров                     : Постоянный
Частота кадров                           : 25,000 кадров/сек
Цветовое пространство                    : YUV
Субдискретизация насыщенности            : 4:2:0
Битовая глубина                          : 8 бит
Тип развёртки                            : Прогрессивная
Бит/(Пиксели*Кадры)                      : 0.168
Размер потока                            : 1,34 Гбайт (81%)
Заголовок                                : Enigma
Библиотека кодирования                   : x264 core 152 r2851 ba24899
Настройки программы                      : cabac=1 / ref=10 / deblock=1:-2:-2 / analyse=0x3:0x113 / me=umh / subme=10 / psy=1 / psy_rd=1.05:0.05 / mixed_ref=1 / me_range=32 / chroma_me=1 / trellis=2 / 8x8dct=1 / cqm=0 / deadzone=21,11 / fast_pskip=1 / chroma_qp_offset=-3 / threads=12 / lookahead_threads=3 / sliced_threads=0 / nr=0 / decimate=0 / interlaced=0 / bluray_compat=0 / constrained_intra=0 / bframes=12 / b_pyramid=2 / b_adapt=2 / b_bias=0 / direct=3 / weightb=1 / open_gop=0 / weightp=2 / keyint=250 / keyint_min=25 / scenecut=40 / intra_refresh=0 / rc_lookahead=40 / rc=2pass / mbtree=0 / bitrate=1851 / ratetol=1.0 / qcomp=0.60 / qpmin=0 / qpmax=51 / qpstep=4 / cplxblur=20.0 / qblur=0.5 / vbv_maxrate=50000 / vbv_bufsize=62500 / nal_hrd=none / filler=0 / ip_ratio=1.40 / pb_ratio=1.30 / aq=1:1.00
Язык                                     : English
Default                                  : Да
Forced                                   : Нет
Цветовой диапазон                        : Limited
Основные цвета                           : BT.709
Характеристики трансфера                 : BT.709
Коэффициенты матрицы                     : BT.709

Аудио
Идентификатор                            : 2
Формат                                   : AC-3
Формат/Информация                        : Audio Coding 3
Расширение режима                        : CM (complete main)
Параметр Endianness формата              : Big
Идентификатор кодека                     : A_AC3
Продолжительность                        : 1 ч. 46 м.
Вид битрейта                             : Постоянный
Битрейт                                  : 384 Кбит/сек
Каналы                                   : 6 каналов
Расположение каналов                     : Front: L C R, Side: L R, LFE
Частота                                  : 48,0 КГц
Частота кадров                           : 31,250 кадров/сек (1536 spf)
Метод сжатия                             : С потерями
Размер потока                            : 291 Мбайт (17%)
Язык                                     : Russian
Default                                  : Да
Forced                                   : Нет

Меню
00:00:00.000                             : en:Глава 1
00:06:40.400                             : en:Глава 2
00:11:05.600                             : en:Глава 3
00:18:02.120                             : en:Глава 4
00:24:19.760                             : en:Глава 5
00:30:39.960                             : en:Глава 6
00:37:44.000                             : en:Глава 7
00:43:57.120                             : en:Глава 8
00:49:33.800                             : en:Глава 9
00:56:28.360                             : en:Глава 10
01:03:01.080                             : en:Глава 11
01:09:37.040                             : en:Глава 12
01:16:42.440                             : en:Глава 13
01:24:57.280                             : en:Глава 14
01:31:32.720                             : en:Глава 15
01:37:10.960                             : en:Глава 16


Скриншоты:



Время раздачи: 24/7 до 10 скачавших
 
Не забывайте говорить Спасибо. Не уходите с раздачи!   
Торрент: Зарегистрирован [22 ноя 2017, 17:42] Для скачивания .torrent
необходима регистрация
Или скачать с помощью
MediaGet
Статус:
Проверен
 
.torrent скачан: 0 раз
Хэш: a3a01733643a3f762f0f3ad0847470d36fcd9c4e
Размер: 1.65 ГБ (1 775 482 367 байт)
Стать Автором раздачи
 
 
Раздал: 0 байт
Скачал: 0 байт
Ратио: Inf.
Сообщения: 30970
Зарегистрирован: 05 окт 2014, 15:23


  • Похожие торренты
    Ответы
    Просмотры
    Последнее сообщение

Вернуться в Отечественное кино

Ресурс не предоставляет электронные версии произведений, а занимается лишь коллекционированием и каталогизацией ссылок, присылаемых и публикуемых на форуме нашими читателями. Если вы являетесь правообладателем какого-либо представленного материала и не желаете чтобы ссылка на него находилась в нашем каталоге, свяжитесь с нами и мы незамедлительно удалим её. Файлы для обмена на трекере предоставлены пользователями сайта, и администрация не несёт ответственности за их содержание. Просьба не заливать файлы, защищенные авторскими правами, а также файлы нелегального содержания!