Время первых (2017) BDRip 1080p от New-Team & qqss44 | GER Transfer | Лицензия

 
 Статистика раздачи 
Размер: 7.75 ГБ   |  Зарегистрирован: 29 ноя 2017, 17:11   |   .torrent скачан: 0 раз
Сидеров: 114  [ 0 байт/сек ]     Личеров: 9  [ 0 байт/сек ]  
  

Время первых (2017) BDRip 1080p от New-Team & qqss44 | GER Transfer | Лицензия

Сообщение Lester » 29 ноя 2017, 17:11




Мы "ВКОНТАКТЕ"




Информация о фильме
Название: Время первых
Год выхода: 2017
Жанр: Триллер, приключения
Режиссер: Дмитрий Киселёв
В ролях: Евгений Миронов, Константин Хабенский, Владимир Ильин, Анатолий Котенёв, Александра Урсуляк, Елена Панова, Александр Новин, Марта Тимофеева, Геннадий Смирнов, Юрий Нифонтов

О фильме:
60-е. Разгар холодной войны. Две супердержавы, СССР и США бьются за первенство в космической гонке. Пока СССР впереди, на очереди — выход человека в открытый космос. За две недели до старта взрывается тестовый корабль. Времени на выявление причин нет. И пусть риски огромны, мы не можем уступить лидерство. Опытный военный летчик Павел Беляев и его напарник Алексей Леонов, необстрелянный и горячий, мечтающий о подвиге, — два человека, готовые шагнуть в неизвестность. Но никто не мог даже предположить всего, с чем им предстояло столкнуться в полете. В этой миссии все, что только можно, пошло не так.



Страна: Россия
Студия: Базелевс Продакшн, CGF
Продолжительность: 02:17:17
Язык: Русский | Лицензия

Файл
Формат: MKV, BDRip 1080p
Видео: MPEG-4 AVC, 7500 Кбит/с, 1920x812
Aудио#1: [RUS] AC3 | 48 KHz | 5.1 (Front: L С R Side: L R) + LFE | ~640 kbps
Релиз от:


Общее
Уникальный идентификатор : 221319071121249043738703960747876387210 (0xA68080AC991DE1AAB5CC88DFFD25898A)
Полное имя : X:�0000Vremia.Pervix.(2017).BDRip.1080p.(qqss44).mkv
Формат : Matroska
Версия формата : Version 2
Размер файла : 7,75 Гбайт
Продолжительность : 2 ч. 16 м.
Общий поток : 8105 Кбит/сек
Название фильма : Vremia.Pervix.(2017).BDRip.1080p.(qqss44)
Дата кодирования : UTC 2017-11-22 12:02:13
Программа кодирования : mkvmerge v5.8.0 ('No Sleep / Pillow') built on Sep 2 2012 15:37:04
Библиотека кодирования : libebml v1.2.3 + libmatroska v1.3.0

Видео
Идентификатор : 1
Формат : AVC
Формат/Информация : Advanced Video Codec
Профиль формата : [email protected]
Параметр CABAC формата : Да
Параметр ReFrames формата : 4 кадра
Идентификатор кодека : V_MPEG4/ISO/AVC
Продолжительность : 2 ч. 16 м.
Битрейт : 7464 Кбит/сек
Ширина : 1920 пикселей
Высота : 812 пикселей
Соотношение сторон : 2,35:1
Режим частоты кадров : Постоянный
Частота кадров : 23,976 (24000/1001) кадра/сек
Цветовое пространство : YUV
Субдискретизация насыщенности : 4:2:0
Битовая глубина : 8 бит
Тип развёртки : Прогрессивная
Бит/(Пиксели*Кадры) : 0.200
Размер потока : 6,99 Гбайт (90%)
Библиотека кодирования : x264 core 152 r2851kMod ba24899
Настройки программы : cabac=1 / ref=4 / deblock=1:-1:-1 / analyse=0x3:0x113 / me=umh / subme=11 / psy=1 / fade_compensate=0.00 / psy_rd=1.00:0.00 / mixed_ref=1 / me_range=32 / chroma_me=1 / trellis=2 / 8x8dct=1 / cqm=0 / deadzone=21,11 / fast_pskip=0 / chroma_qp_offset=-2 / threads=12 / lookahead_threads=2 / sliced_threads=0 / nr=0 / decimate=0 / interlaced=0 / bluray_compat=0 / constrained_intra=0 / bframes=7 / b_pyramid=2 / b_adapt=2 / b_bias=0 / direct=3 / weightb=1 / open_gop=0 / weightp=2 / keyint=240 / keyint_min=23 / scenecut=40 / intra_refresh=0 / rc_lookahead=40 / rc=2pass / mbtree=0 / bitrate=7464 / ratetol=1.0 / qcomp=0.70 / qpmin=0 / qpmax=69 / qpstep=4 / cplxblur=20.0 / qblur=0.5 / vbv_maxrate=50000 / vbv_bufsize=62500 / nal_hrd=none / filler=0 / ip_ratio=1.40 / pb_ratio=1.30 / aq=3:0.90
Язык : Russian
Default : Да
Forced : Нет

Аудио
Идентификатор : 2
Формат : AC-3
Формат/Информация : Audio Coding 3
Расширение режима : CM (complete main)
Параметр Endianness формата : Big
Идентификатор кодека : A_AC3
Продолжительность : 2 ч. 16 м.
Вид битрейта : Постоянный
Битрейт : 640 Кбит/сек
Каналы : 6 каналов
Расположение каналов : Front: L C R, Side: L R, LFE
Частота : 48,0 КГц
Частота кадров : 31,250 кадров/сек (1536 spf)
Метод сжатия : С потерями
Размер потока : 627 Мбайт (8%)
Язык : Russian
Default : Да
Forced : Нет

Меню
00:00:00.000 : ru:Chapter 01
00:09:43.249 : ru:Chapter 02
00:18:49.169 : ru:Chapter 03
00:30:08.056 : ru:Chapter 04
00:41:19.894 : ru:Chapter 05
00:51:33.924 : ru:Chapter 06
01:00:20.783 : ru:Chapter 07
01:09:47.308 : ru:Chapter 08
01:18:29.538 : ru:Chapter 09
01:30:06.901 : ru:Chapter 10
01:39:16.158 : ru:Chapter 11
01:49:17.175 : ru:Chapter 12
02:00:26.469 : ru:Chapter 13
02:11:54.740 : ru:Chapter 14
 
Не забывайте говорить Спасибо. Не уходите с раздачи!   
Торрент: Зарегистрирован [29 ноя 2017, 17:11] Для скачивания .torrent
необходима регистрация
Или скачать с помощью
MediaGet
Статус:
Проверен
 
.torrent скачан: 0 раз
Хэш: 89015d68d339229b43c6b29d5cddf7209417bd86
Размер: 7.75 ГБ (8 325 350 927 байт)
Стать Автором раздачи
 
 
Раздал: 100 ГБ
Скачал: 0 байт
Ратио: Seed.
Сообщения: 111246
Зарегистрирован: 09 апр 2015, 23:00


  • Похожие торренты
    Ответы
    Просмотры
    Последнее сообщение

Вернуться в Отечественное кино

Ресурс не предоставляет электронные версии произведений, а занимается лишь коллекционированием и каталогизацией ссылок, присылаемых и публикуемых на форуме нашими читателями. Если вы являетесь правообладателем какого-либо представленного материала и не желаете чтобы ссылка на него находилась в нашем каталоге, свяжитесь с нами и мы незамедлительно удалим её. Файлы для обмена на трекере предоставлены пользователями сайта, и администрация не несёт ответственности за их содержание. Просьба не заливать файлы, защищенные авторскими правами, а также файлы нелегального содержания!
cron