Время первых (2017) BDRip 720p от ExKinoRay | GER Transfer | Лицензия

 
 Статистика раздачи 
Размер: 5.75 ГБ   |  Зарегистрирован: 29 ноя 2017, 17:12   |   .torrent скачан: 0 раз
Сидеров: 2  [ 0 байт/сек ]     Личеров: 0  [ 0 байт/сек ]  
  

Время первых (2017) BDRip 720p от ExKinoRay | GER Transfer | Лицензия

Сообщение Lester » 29 ноя 2017, 17:12

Информация о фильме
Название: Время первых
Год выхода: 2017
Страна: Россия
Продолжительность: 02:16:57
Жанр: Приключения, триллер
Перевод: Не требуется
Субтитры: Немецкие


Режиссер: Дмитрий Киселёв


В ролях: Евгений Миронов (Алексей Леонов), Константин Хабенский (Павел Беляев), Владимир Ильин (Сергей Павлович Королев), Анатолий Котенёв (Николай Петрович Каманин), Александра Урсуляк (Светлана Леонова), Елена Панова (Татьяна Беляева), Александр Новин (Евгений Хрунов), Марта Тимофеева (Виктория Леонова), Геннадий Смирнов (Константин Феоктистов), Юрий Нифонтов (Борис Раушенбах), Юрий Ицков (Борис Черток), Валерий Гришко (Леонид Брежнев)

Описание: 60-е. Разгар холодной войны. Две супердержавы, СССР и США бьются за первенство в космической гонке. Пока СССР впереди, на очереди — выход человека в открытый космос. За две недели до старта взрывается тестовый корабль. Времени на выявление причин нет. И пусть риски огромны, мы не можем уступить лидерство. Опытный военный летчик Павел Беляев и его напарник Алексей Леонов, необстрелянный и горячий, мечтающий о подвиге, — два человека, готовые шагнуть в неизвестность. Но никто не мог даже предположить всего, с чем им предстояло столкнуться в полете. В этой миссии все, что только можно, пошло не так.



Файл
Качество: BDRip 720p
Формат: MKV
Видео: MPEG-4 AVC, 1280x542 (2.35:1), 23.976 fps, ~3861 kbps avg, 0.232 bit/pixel
Аудио 1: 48 kHz, AC3 Dolby Digital, 3/2 (L,C,R,l,r) + LFE ch, ~640.00 kbps avg | RUS
Аудио 2: 48 kHz, DTS, 5.1, 1509 Kbps | RUS

General
Unique ID : 215103564466883123780171247240461356242 (0xA1D370894E480F679AB433F4D7070CD2)
Complete name : D:Vrem1a.Perv1h.2017.BDRip.720.ExKinoRay.mkv
Format : Matroska
Format version : Version 2
File size : 5.75 GiB
Duration : 2 h 16 min
Overall bit rate : 6 013 kb/s
Movie name : Время первых 2017 from ExKinoRay
Encoded date : UTC 2017-11-23 00:17:28
Writing application : mkvmerge v5.6.0 ('Kenya Kane') built on May 27 2012 16:44:04
Writing library : libebml v1.2.3 + libmatroska v1.3.0

Video
ID : 1
Format : AVC
Format/Info : Advanced Video Codec
Format profile : [email protected]
Format settings, CABAC : Yes
Format settings, ReFrames : 12 frames
Codec ID : V_MPEG4/ISO/AVC
Duration : 2 h 16 min
Bit rate : 3 861 kb/s
Width : 1 280 pixels
Height : 542 pixels
Display aspect ratio : 2.35:1
Frame rate mode : Constant
Frame rate : 23.976 (23976/1000) FPS
Color space : YUV
Chroma subsampling : 4:2:0
Bit depth : 8 bits
Scan type : Progressive
Bits/(Pixel*Frame) : 0.232
Stream size : 3.58 GiB (62%)
Title : Enigma
Writing library : x264 core 152 r2851 ba24899
Encoding settings : cabac=1 / ref=12 / deblock=1:-2:-2 / analyse=0x3:0x113 / me=umh / subme=10 / psy=1 / psy_rd=1.05:0.10 / mixed_ref=1 / me_range=32 / chroma_me=1 / trellis=2 / 8x8dct=1 / cqm=0 / deadzone=21,11 / fast_pskip=1 / chroma_qp_offset=-3 / threads=12 / lookahead_threads=3 / sliced_threads=0 / nr=0 / decimate=0 / interlaced=0 / bluray_compat=0 / constrained_intra=0 / bframes=10 / b_pyramid=2 / b_adapt=2 / b_bias=0 / direct=3 / weightb=1 / open_gop=0 / weightp=2 / keyint=240 / keyint_min=23 / scenecut=40 / intra_refresh=0 / rc_lookahead=40 / rc=2pass / mbtree=0 / bitrate=3861 / ratetol=1.0 / qcomp=0.60 / qpmin=0 / qpmax=51 / qpstep=4 / cplxblur=20.0 / qblur=0.5 / vbv_maxrate=50000 / vbv_bufsize=62500 / nal_hrd=none / filler=0 / ip_ratio=1.40 / pb_ratio=1.30 / aq=1:1.00
Language : English
Default : Yes
Forced : No
Color range : Limited
Color primaries : BT.709
Transfer characteristics : BT.709
Matrix coefficients : BT.709

Audio #1
ID : 2
Format : AC-3
Format/Info : Audio Coding 3
Mode extension : CM (complete main)
Format settings, Endianness : Big
Codec ID : A_AC3
Duration : 2 h 16 min
Bit rate mode : Constant
Bit rate : 640 kb/s
Channel(s) : 6 channels
Channel positions : Front: L C R, Side: L R, LFE
Sampling rate : 48.0 kHz
Frame rate : 31.250 FPS (1536 spf)
Compression mode : Lossy
Stream size : 627 MiB (11%)
Title : Лицензия
Language : Russian
Default : Yes
Forced : No

Audio #2
ID : 3
Format : DTS
Format/Info : Digital Theater Systems
Mode : 16
Format settings, Endianness : Big
Codec ID : A_DTS
Duration : 2 h 16 min
Bit rate mode : Constant
Bit rate : 1 509 kb/s
Channel(s) : 6 channels
Channel positions : Front: L C R, Side: L R, LFE
Sampling rate : 48.0 kHz
Frame rate : 93.750 FPS (512 spf)
Bit depth : 24 bits
Compression mode : Lossy
Stream size : 1.44 GiB (25%)
Title : Лицензия
Language : Russian
Default : No
Forced : No

Text #1
ID : 4
Format : UTF-8
Codec ID : S_TEXT/UTF8
Codec ID/Info : UTF-8 Plain Text
Title : Forced
Language : German
Default : No
Forced : No

Text #2
ID : 5
Format : UTF-8
Codec ID : S_TEXT/UTF8
Codec ID/Info : UTF-8 Plain Text
Title : Full
Language : German
Default : No
Forced : No

Menu
00:00:00.000 : ru:Chapter 01
00:09:43.249 : ru:Chapter 02
00:18:49.169 : ru:Chapter 03
00:30:08.056 : ru:Chapter 04
00:41:19.894 : ru:Chapter 05
00:51:33.924 : ru:Chapter 06
01:00:20.783 : ru:Chapter 07
01:09:47.308 : ru:Chapter 08
01:18:29.538 : ru:Chapter 09
01:30:06.901 : ru:Chapter 10
01:39:16.158 : ru:Chapter 11
01:49:17.175 : ru:Chapter 12
02:00:26.469 : ru:Chapter 13
02:11:54.740 : ru:Chapter 14





Релиз от:

Автор релиза:
 
Не забывайте говорить Спасибо. Не уходите с раздачи!   
Торрент: Зарегистрирован [29 ноя 2017, 17:12] Для скачивания .torrent
необходима регистрация
Или скачать с помощью
MediaGet
Статус:
Проверен
 
.torrent скачан: 0 раз
Хэш: 1fbd97e061b08868866cad3d928acc3b25aeecff
Размер: 5.75 ГБ (6 176 054 211 байт)
Стать Автором раздачи
 
 
Раздал: 100 ГБ
Скачал: 0 байт
Ратио: Seed.
Сообщения: 111249
Зарегистрирован: 09 апр 2015, 23:00


  • Похожие торренты
    Ответы
    Просмотры
    Последнее сообщение

Вернуться в Отечественное кино

Ресурс не предоставляет электронные версии произведений, а занимается лишь коллекционированием и каталогизацией ссылок, присылаемых и публикуемых на форуме нашими читателями. Если вы являетесь правообладателем какого-либо представленного материала и не желаете чтобы ссылка на него находилась в нашем каталоге, свяжитесь с нами и мы незамедлительно удалим её. Файлы для обмена на трекере предоставлены пользователями сайта, и администрация не несёт ответственности за их содержание. Просьба не заливать файлы, защищенные авторскими правами, а также файлы нелегального содержания!
cron