Гоголь. Начало (2017) BDRip 720p от KinoGadget | iPad | Лицензия

 
 Статистика раздачи 
Размер: 1.5 ГБ   |  Зарегистрирован: 29 ноя 2017, 17:16   |   .torrent скачан: 0 раз
Сидеров: 1  [ 0 байт/сек ]     Личеров: 0  [ 0 байт/сек ]  
  

Гоголь. Начало (2017) BDRip 720p от KinoGadget | iPad | Лицензия

Сообщение Lester » 29 ноя 2017, 17:16

Год выпуска: 2017
Оригинальное название: Гоголь. Начало
Страна: Россия
Жанр: приключения, триллер, детектив
Возраст: 18+

Режиссер: Егор Баранов

В ролях: Александр Петров (II), Олег Меньшиков, Евгений Сытый, Таисия Вилкова, Артём Ткаченко, Юлия Франц, Евгений Стычкин, Ян Цапник, Сергей Бадюк, Марта Тимофеева

Описание: Казаки, ведьмы, русалки, утопленницы и другие обитатели Диканьки встречаются лицом к лицу со своим создателем Николаем Гоголем, молодым писарем из Петербурга, который страдает загадочными припадками и может общаться с персонажами из потустороннего мира. Вместе со своим начальником, блестящим столичным следователем Яковом Гуро, начинающий писатель приезжает на Полтавщину расследовать таинственные убийства девушек. Здесь же он встречает свою любовь, которой суждено сыграть роковую роль в его судьбе. Но хватит ли юному литератору духу противостоять невообразимому? Ведь по слухам, которые активно разносят напуганные местные жители, за преступлениями стоит не кто иной, как сам Дьявол в обличии черного всадника.

Продолжительность: 01:46:47
Перевод: Оригинал (русский) [Лицензия]
Оригинальная дорожка: есть

Автор рипа:

Качество видео: BDRip 720p Исходник: Blu-Ray Remux (1080p) Формат: mp4
Видео кодек: MPEG-4 AVC Аудио кодек: AAC
Видео: 1280x538 (2.40:1) at 24.000 fps, AVC at 1 878 kbps avg, 0.114 bit/pixel
Аудио №1 Rus: 48.0 KHz, AAC, 2 ch, 128.0 Kbps
Субтитры: нет
Навигация по главам: есть
Размер: 1.50 GiB

avs [info]: 1280x538p 1:1 @ 24/1 fps (cfr)
x264 [info]: using SAR=1/1
x264 [info]: using cpu capabilities: MMX2 SSE2Fast SSSE3 Cache64
x264 [info]: profile High, level 4.1
x264 [info]: frame I:1418 Avg QP:15.01 size: 70146
x264 [info]: frame P:32818 Avg QP:18.45 size: 21330
x264 [info]: frame B:119538 Avg QP:20.18 size: 5894
x264 [info]: consecutive B-frames: 2.1% 1.9% 5.5% 24.3% 19.5% 35.3% 6.7% 2.1% 2.6%
x264 [info]: mb I I16..4: 7.6% 76.9% 15.5%
x264 [info]: mb P I16..4: 2.8% 11.2% 1.0% P16..4: 46.2% 20.2% 12.4% 0.0% 0.0% skip: 6.3%
x264 [info]: mb B I16..4: 0.2% 0.7% 0.1% B16..8: 38.4% 6.2% 1.1% direct: 6.0% skip:47.1% L0:43.8% L1:48.7% BI: 7.5%
x264 [info]: 8x8 transform intra:74.1% inter:74.5%
x264 [info]: coded y,uvDC,uvAC intra: 63.1% 72.3% 34.5% inter: 16.9% 23.5% 1.2%
x264 [info]: i16 v,h,dc,p: 24% 16% 8% 52%
x264 [info]: i8 v,h,dc,ddl,ddr,vr,hd,vl,hu: 20% 14% 23% 5% 8% 9% 7% 8% 7%
x264 [info]: i4 v,h,dc,ddl,ddr,vr,hd,vl,hu: 25% 15% 13% 6% 11% 10% 8% 7% 5%
x264 [info]: i8c dc,h,v,p: 53% 18% 21% 8%
x264 [info]: Weighted P-Frames: Y:6.0% UV:3.2%
x264 [info]: ref P L0: 47.6% 10.9% 15.6% 6.7% 5.2% 4.2% 3.5% 2.1% 1.9% 2.0% 0.2% 0.0%
x264 [info]: ref B L0: 75.5% 10.2% 5.4% 2.6% 2.1% 1.7% 1.6% 0.6% 0.3%
x264 [info]: ref B L1: 94.4% 5.6%
x264 [info]: kb/s:1877.98
encoded 153774 frames, 1.94 fps, 1877.98 kb/s

General
Complete name : ...Gogol_Nachalo_2017_KinoGadget.mp4
Format : MPEG-4
Format profile : Base Media
Codec ID : isom (isom)
File size : 1.50 GiB
Duration : 1 h 46 min
Overall bit rate mode : Variable
Overall bit rate : 2 014 kb/s
Movie name : Гоголь. Начало | KinoGadget
Performer : Егор Баранов
Director : Егор Баранов
Actor : Александр Петров (II) / Олег Меньшиков / Евгений Сытый / Таисия Вилкова / Артём Ткаченко / Юлия Франц / Евгений Стычкин / Ян Цапник / Сергей Бадюк / Марта Тимофеева
Screenplay by : Тихон Корнев / Ким Белов / Алексей Чупов
Producer : Александр Цекало / Артур Джанибекян / Валерий Федорович
Genre : Adventure, Thriller
ContentType : Short Film
Recorded date : 2017
Encoded date : UTC 2017-11-27 11:15:54
Tagged date : UTC 2017-11-27 11:25:59
Cover : Yes
ContentRating : mpaa|R|400|
LongDeion : Казаки, ведьмы, русалки, утопленницы и другие обитатели Диканьки встречаются лицом к лицу со своим создателем Николаем Гоголем, молодым писарем из Петербурга, который страдает загадочными припадками и может общаться с персонажами из потустороннего мира. Вместе со своим начальником, блестящим столичным следователем Яковом Гуро, начинающий писатель приезжает на Полтавщину расследовать таинственные убийства девушек. Здесь же он встречает свою любовь, которой суждено сыграть роковую роль в его судьбе.
HDVideo : Yes

Video
ID : 1
Format : AVC
Format/Info : Advanced Video Codec
Format profile : [email protected]
Format settings, CABAC : Yes
Format settings, ReFrames : 10 frames
Codec ID : avc1
Codec ID/Info : Advanced Video Coding
Duration : 1 h 46 min
Bit rate : 1 878 kb/s
Maximum bit rate : 13.9 Mb/s
Width : 1 280 pixels
Height : 538 pixels
Display aspect ratio : 2.40:1
Frame rate mode : Constant
Frame rate : 24.000 FPS
Color space : YUV
Chroma subsampling : 4:2:0
Bit depth : 8 bits
Scan type : Progressive
Bits/(Pixel*Frame) : 0.114
Stream size : 1.40 GiB (93%)
Writing library : x264 core 152 r2851 ba24899
Encoding settings : cabac=1 / ref=10 / deblock=1:-2:-1 / analyse=0x3:0x113 / me=umh / subme=7 / psy=1 / psy_rd=1.00:0.00 / mixed_ref=1 / me_range=32 / chroma_me=1 / trellis=2 / 8x8dct=1 / cqm=0 / deadzone=21,11 / fast_pskip=0 / chroma_qp_offset=-2 / threads=3 / lookahead_threads=1 / sliced_threads=0 / nr=0 / decimate=1 / interlaced=0 / bluray_compat=0 / constrained_intra=0 / bframes=8 / b_pyramid=2 / b_adapt=2 / b_bias=0 / direct=1 / weightb=1 / open_gop=0 / weightp=2 / keyint=250 / keyint_min=25 / scenecut=40 / intra_refresh=0 / rc_lookahead=60 / rc=crf / mbtree=1 / crf=19.0 / qcomp=0.60 / qpmin=0 / qpmax=69 / qpstep=4 / vbv_maxrate=62500 / vbv_bufsize=78125 / crf_max=0.0 / nal_hrd=none / filler=0 / ip_ratio=1.40 / aq=1:1.00
Encoded date : UTC 2017-11-27 09:56:28
Tagged date : UTC 2017-11-27 11:16:50

Audio
ID : 2
Format : AAC
Format/Info : Advanced Audio Codec
Format profile : LC
Codec ID : 40
Duration : 1 h 46 min
Bit rate mode : Variable
Bit rate : 128 kb/s
Maximum bit rate : 135 kb/s
Channel(s) : 2 channels
Channel positions : Front: L R
Sampling rate : 48.0 kHz
Frame rate : 46.875 FPS (1024 spf)
Compression mode : Lossy
Stream size : 97.8 MiB (6%)
Language : Russian
Encoded date : UTC 2017-11-27 10:05:07
Tagged date : UTC 2017-11-27 11:16:50

Menu
00:00:00.000 : Chapter 01
00:00:25.916 : Chapter 02
00:14:02.208 : Chapter 03
00:27:17.041 : Chapter 04
00:40:22.375 : Chapter 05
00:54:57.291 : Chapter 06
01:06:34.458 : Chapter 07
01:17:57.500 : Chapter 08
01:30:44.083 : Chapter 09



Данный рип предназначен для просмотра на мобильных гаджетах с поддержкой формата mp4
 
Не забывайте говорить Спасибо. Не уходите с раздачи!   
Торрент: Зарегистрирован [29 ноя 2017, 17:16] Для скачивания .torrent
необходима регистрация
Или скачать с помощью
MediaGet
Статус:
Проверен
 
.torrent скачан: 0 раз
Хэш: 7286a5e08057e2600a181da26339c00925f325e1
Размер: 1.5 ГБ (1 612 721 974 байт)
Стать Автором раздачи
 
 
Раздал: 100 ГБ
Скачал: 0 байт
Ратио: Seed.
Сообщения: 113046
Зарегистрирован: 09 апр 2015, 23:00


  • Похожие торренты
    Ответы
    Просмотры
    Последнее сообщение

Вернуться в Отечественное кино

Ресурс не предоставляет электронные версии произведений, а занимается лишь коллекционированием и каталогизацией ссылок, присылаемых и публикуемых на форуме нашими читателями. Если вы являетесь правообладателем какого-либо представленного материала и не желаете чтобы ссылка на него находилась в нашем каталоге, свяжитесь с нами и мы незамедлительно удалим её. Файлы для обмена на трекере предоставлены пользователями сайта, и администрация не несёт ответственности за их содержание. Просьба не заливать файлы, защищенные авторскими правами, а также файлы нелегального содержания!
cron